  0
SECTION
  2
HEADER
  9
$ACADVER
  1
AC1015
  9
$ACADMAINTVER
 70
     6
  9
$DWGCODEPAGE
  3
ANSI_1252
  9
$INSBASE
 10
0.0
 20
0.0
 30
0.0
  9
$EXTMIN
 10
19.49999999999996
 20
19.4999999999999
 30
0.0
  9
$EXTMAX
 10
574.5
 20
420.5
 30
0.0
  9
$LIMMIN
 10
0.0
 20
0.0
  9
$LIMMAX
 10
12.0
 20
9.0
  9
$ORTHOMODE
 70
     0
  9
$REGENMODE
 70
     1
  9
$FILLMODE
 70
     1
  9
$QTEXTMODE
 70
     0
  9
$MIRRTEXT
 70
     1
  9
$LTSCALE
 40
1.0
  9
$ATTMODE
 70
     1
  9
$TEXTSIZE
 40
0.2
  9
$TRACEWID
 40
0.05
  9
$TEXTSTYLE
  7
Standard
  9
$CLAYER
  8
0
  9
$CELTYPE
  6
ByLayer
  9
$CECOLOR
 62
   256
  9
$CELTSCALE
 40
1.0
  9
$DISPSILH
 70
     0
  9
$DIMSCALE
 40
1.0
  9
$DIMASZ
 40
0.18
  9
$DIMEXO
 40
0.0625
  9
$DIMDLI
 40
0.38
  9
$DIMRND
 40
0.0
  9
$DIMDLE
 40
0.0
  9
$DIMEXE
 40
0.18
  9
$DIMTP
 40
0.0
  9
$DIMTM
 40
0.0
  9
$DIMTXT
 40
0.18
  9
$DIMCEN
 40
0.09
  9
$DIMTSZ
 40
0.0
  9
$DIMTOL
 70
     0
  9
$DIMLIM
 70
     0
  9
$DIMTIH
 70
     1
  9
$DIMTOH
 70
     1
  9
$DIMSE1
 70
     0
  9
$DIMSE2
 70
     0
  9
$DIMTAD
 70
     0
  9
$DIMZIN
 70
     0
  9
$DIMBLK
  1

  9
$DIMASO
 70
     1
  9
$DIMSHO
 70
     1
  9
$DIMPOST
  1

  9
$DIMAPOST
  1

  9
$DIMALT
 70
     0
  9
$DIMALTD
 70
     2
  9
$DIMALTF
 40
25.4
  9
$DIMLFAC
 40
1.0
  9
$DIMTOFL
 70
     0
  9
$DIMTVP
 40
0.0
  9
$DIMTIX
 70
     0
  9
$DIMSOXD
 70
     0
  9
$DIMSAH
 70
     0
  9
$DIMBLK1
  1

  9
$DIMBLK2
  1

  9
$DIMSTYLE
  2
Standard
  9
$DIMCLRD
 70
     0
  9
$DIMCLRE
 70
     0
  9
$DIMCLRT
 70
     0
  9
$DIMTFAC
 40
1.0
  9
$DIMGAP
 40
0.09
  9
$DIMJUST
 70
     0
  9
$DIMSD1
 70
     0
  9
$DIMSD2
 70
     0
  9
$DIMTOLJ
 70
     1
  9
$DIMTZIN
 70
     0
  9
$DIMALTZ
 70
     0
  9
$DIMALTTZ
 70
     0
  9
$DIMUPT
 70
     0
  9
$DIMDEC
 70
     4
  9
$DIMTDEC
 70
     4
  9
$DIMALTU
 70
     2
  9
$DIMALTTD
 70
     2
  9
$DIMTXSTY
  7
Standard
  9
$DIMAUNIT
 70
     0
  9
$DIMADEC
 70
     0
  9
$DIMALTRND
 40
0.0
  9
$DIMAZIN
 70
     0
  9
$DIMDSEP
 70
    46
  9
$DIMATFIT
 70
     3
  9
$DIMFRAC
 70
     0
  9
$DIMLDRBLK
  1

  9
$DIMLUNIT
 70
     2
  9
$DIMLWD
 70
    -2
  9
$DIMLWE
 70
    -2
  9
$DIMTMOVE
 70
     0
  9
$LUNITS
 70
     2
  9
$LUPREC
 70
     4
  9
$SKETCHINC
 40
0.1
  9
$FILLETRAD
 40
0.5
  9
$AUNITS
 70
     0
  9
$AUPREC
 70
     0
  9
$MENU
  1
.
  9
$ELEVATION
 40
0.0
  9
$PELEVATION
 40
0.0
  9
$THICKNESS
 40
0.0
  9
$LIMCHECK
 70
     0
  9
$CHAMFERA
 40
0.5
  9
$CHAMFERB
 40
0.5
  9
$CHAMFERC
 40
1.0
  9
$CHAMFERD
 40
0.0
  9
$SKPOLY
 70
     0
  9
$TDCREATE
 40
2456997.556408889
  9
$TDUCREATE
 40
2456997.514742222
  9
$TDUPDATE
 40
2456997.556409248
  9
$TDUUPDATE
 40
2456997.514742581
  9
$TDINDWG
 40
0.0000000116
  9
$TDUSRTIMER
 40
0.0000000116
  9
$USRTIMER
 70
     1
  9
$ANGBASE
 50
0.0
  9
$ANGDIR
 70
     0
  9
$PDMODE
 70
     0
  9
$PDSIZE
 40
0.0
  9
$PLINEWID
 40
0.0
  9
$SPLFRAME
 70
     0
  9
$SPLINETYPE
 70
     6
  9
$SPLINESEGS
 70
     8
  9
$HANDSEED
  5
4B0
  9
$SURFTAB1
 70
     6
  9
$SURFTAB2
 70
     6
  9
$SURFTYPE
 70
     6
  9
$SURFU
 70
     6
  9
$SURFV
 70
     6
  9
$UCSBASE
  2

  9
$UCSNAME
  2

  9
$UCSORG
 10
0.0
 20
0.0
 30
0.0
  9
$UCSXDIR
 10
1.0
 20
0.0
 30
0.0
  9
$UCSYDIR
 10
0.0
 20
1.0
 30
0.0
  9
$UCSORTHOREF
  2

  9
$UCSORTHOVIEW
 70
     0
  9
$UCSORGTOP
 10
0.0
 20
0.0
 30
0.0
  9
$UCSORGBOTTOM
 10
0.0
 20
0.0
 30
0.0
  9
$UCSORGLEFT
 10
0.0
 20
0.0
 30
0.0
  9
$UCSORGRIGHT
 10
0.0
 20
0.0
 30
0.0
  9
$UCSORGFRONT
 10
0.0
 20
0.0
 30
0.0
  9
$UCSORGBACK
 10
0.0
 20
0.0
 30
0.0
  9
$PUCSBASE
  2

  9
$PUCSNAME
  2

  9
$PUCSORG
 10
0.0
 20
0.0
 30
0.0
  9
$PUCSXDIR
 10
1.0
 20
0.0
 30
0.0
  9
$PUCSYDIR
 10
0.0
 20
1.0
 30
0.0
  9
$PUCSORTHOREF
  2

  9
$PUCSORTHOVIEW
 70
     0
  9
$PUCSORGTOP
 10
0.0
 20
0.0
 30
0.0
  9
$PUCSORGBOTTOM
 10
0.0
 20
0.0
 30
0.0
  9
$PUCSORGLEFT
 10
0.0
 20
0.0
 30
0.0
  9
$PUCSORGRIGHT
 10
0.0
 20
0.0
 30
0.0
  9
$PUCSORGFRONT
 10
0.0
 20
0.0
 30
0.0
  9
$PUCSORGBACK
 10
0.0
 20
0.0
 30
0.0
  9
$USERI1
 70
     0
  9
$USERI2
 70
     0
  9
$USERI3
 70
     0
  9
$USERI4
 70
     0
  9
$USERI5
 70
     0
  9
$USERR1
 40
18.1
  9
$USERR2
 40
0.0
  9
$USERR3
 40
0.0
  9
$USERR4
 40
0.0
  9
$USERR5
 40
0.0
  9
$WORLDVIEW
 70
     1
  9
$SHADEDGE
 70
     3
  9
$SHADEDIF
 70
    70
  9
$TILEMODE
 70
     1
  9
$MAXACTVP
 70
    64
  9
$PINSBASE
 10
0.0
 20
0.0
 30
0.0
  9
$PLIMCHECK
 70
     0
  9
$PEXTMIN
 10
1.00000000000000E+20
 20
1.00000000000000E+20
 30
1.00000000000000E+20
  9
$PEXTMAX
 10
-1.00000000000000E+20
 20
-1.00000000000000E+20
 30
-1.00000000000000E+20
  9
$PLIMMIN
 10
0.0
 20
0.0
  9
$PLIMMAX
 10
12.0
 20
9.0
  9
$UNITMODE
 70
     0
  9
$VISRETAIN
 70
     1
  9
$PLINEGEN
 70
     0
  9
$PSLTSCALE
 70
     1
  9
$TREEDEPTH
 70
  3020
  9
$CMLSTYLE
  2
Standard
  9
$CMLJUST
 70
     0
  9
$CMLSCALE
 40
1.0
  9
$PROXYGRAPHICS
 70
     1
  9
$MEASUREMENT
 70
     1
  9
$CELWEIGHT
370
    -1
  9
$ENDCAPS
280
     0
  9
$JOINSTYLE
280
     0
  9
$LWDISPLAY
290
     0
  9
$INSUNITS
 70
     4
  9
$HYPERLINKBASE
  1

  9
$STYLESHEET
  1

  9
$XEDIT
290
     1
  9
$CEPSNTYPE
380
     0
  9
$PSTYLEMODE
290
     1
  9
$FINGERPRINTGUID
  2
{4DEBA114-789B-4B4A-82DA-E8AA03DF5540}
  9
$VERSIONGUID
  2
{FAEB1C32-E019-11D5-929B-00C0DF256EC4}
  9
$EXTNAMES
290
     1
  9
$PSVPSCALE
 40
0.0
  9
$OLESTARTUP
290
     0
  0
ENDSEC
  0
SECTION
  2
CLASSES
  0
CLASS
  1
ACDBDICTIONARYWDFLT
  2
AcDbDictionaryWithDefault
  3
ObjectDBX Classes
 90
        0
280
     0
281
     0
  0
CLASS
  1
VISUALSTYLE
  2
AcDbVisualStyle
  3
ObjectDBX Classes
 90
     4095
280
     0
281
     0
  0
CLASS
  1
MATERIAL
  2
AcDbMaterial
  3
ObjectDBX Classes
 90
     1153
280
     0
281
     0
  0
CLASS
  1
DICTIONARYVAR
  2
AcDbDictionaryVar
  3
ObjectDBX Classes
 90
        0
280
     0
281
     0
  0
CLASS
  1
ACDBPLACEHOLDER
  2
AcDbPlaceHolder
  3
ObjectDBX Classes
 90
        0
280
     0
281
     0
  0
CLASS
  1
LAYOUT
  2
AcDbLayout
  3
ObjectDBX Classes
 90
        0
280
     0
281
     0
  0
ENDSEC
  0
SECTION
  2
TABLES
  0
TABLE
  2
VPORT
  5
8
330
0
100
AcDbSymbolTable
 70
     1
  0
VPORT
  5
29
330
8
100
AcDbSymbolTableRecord
100
AcDbViewportTableRecord
  2
*Active
 70
     0
 10
0.0
 20
0.0
 11
1.0
 21
1.0
 12
297.0
 22
219.9999999999999
 13
0.0
 23
0.0
 14
0.5
 24
0.5
 15
0.5
 25
0.5
 16
0.0
 26
0.0
 36
1.0
 17
0.0
 27
0.0
 37
0.0
 40
441.1000000000001
 41
1.60267857142857
 42
50.0
 43
0.0
 44
0.0
 50
0.0
 51
0.0
 71
     0
 72
   100
 73
     1
 74
     3
 75
     0
 76
     0
 77
     0
 78
     0
281
     0
 65
     1
110
0.0
120
0.0
130
0.0
111
1.0
121
0.0
131
0.0
112
0.0
122
1.0
132
0.0
 79
     0
146
0.0
  0
ENDTAB
  0
TABLE
  2
LTYPE
  5
5
330
0
100
AcDbSymbolTable
 70
    10
  0
LTYPE
  5
14
330
5
100
AcDbSymbolTableRecord
100
AcDbLinetypeTableRecord
  2
ByBlock
 70
     0
  3

 72
    65
 73
     0
 40
0.0
  0
LTYPE
  5
15
330
5
100
AcDbSymbolTableRecord
100
AcDbLinetypeTableRecord
  2
ByLayer
 70
     0
  3

 72
    65
 73
     0
 40
0.0
  0
LTYPE
  5
16
330
5
100
AcDbSymbolTableRecord
100
AcDbLinetypeTableRecord
  2
Continuous
 70
     0
  3
Solid line
 72
    65
 73
     0
 40
0.0
  0
LTYPE
  5
3F
330
5
100
AcDbSymbolTableRecord
100
AcDbLinetypeTableRecord
  2
DASHED
 70
     0
  3
Dashed
 72
    65
 73
     2
 40
15.0
 49
7.0
 74
     0
 49
-8.0
 74
     0
  0
LTYPE
  5
40
330
5
100
AcDbSymbolTableRecord
100
AcDbLinetypeTableRecord
  2
DOTTED
 70
     0
  3
Dotted
 72
    65
 73
     2
 40
1.0
 49
0.0
 74
     0
 49
-1.0
 74
     0
  0
LTYPE
  5
41
330
5
100
AcDbSymbolTableRecord
100
AcDbLinetypeTableRecord
  2
DOT_CENTER
 70
     0
  3
Dot_Center
 72
    65
 73
     4
 40
14.0
 49
12.0
 74
     0
 49
-1.0
 74
     0
 49
0.0
 74
     0
 49
-1.0
 74
     0
  0
LTYPE
  5
42
330
5
100
AcDbSymbolTableRecord
100
AcDbLinetypeTableRecord
  2
LONG_DASHED
 70
     0
  3
Long_Dashed
 72
    65
 73
     2
 40
15.0
 49
10.0
 74
     0
 49
-5.0
 74
     0
  0
LTYPE
  5
43
330
5
100
AcDbSymbolTableRecord
100
AcDbLinetypeTableRecord
  2
DASH_CENTER
 70
     0
  3
Dash_Center
 72
    65
 73
     4
 40
14.0
 49
11.0
 74
     0
 49
-1.0
 74
     0
 49
1.0
 74
     0
 49
-1.0
 74
     0
  0
LTYPE
  5
44
330
5
100
AcDbSymbolTableRecord
100
AcDbLinetypeTableRecord
  2
PHANTOM
 70
     0
  3
Phantom
 72
    65
 73
     6
 40
13.0
 49
10.0
 74
     0
 49
-1.0
 74
     0
 49
0.0
 74
     0
 49
-1.0
 74
     0
 49
0.0
 74
     0
 49
-1.0
 74
     0
  0
LTYPE
  5
45
330
5
100
AcDbSymbolTableRecord
100
AcDbLinetypeTableRecord
  2
CENTER_DASH_DASH
 70
     0
  3
Center_Dash_Dash
 72
    65
 73
     6
 40
14.0
 49
9.0
 74
     0
 49
-1.0
 74
     0
 49
1.0
 74
     0
 49
-1.0
 74
     0
 49
1.0
 74
     0
 49
-1.0
 74
     0
  0
LTYPE
  5
46
330
5
100
AcDbSymbolTableRecord
100
AcDbLinetypeTableRecord
  2
CHAIN
 70
     0
  3
CHAIN
 72
    65
 73
     4
 40
4.0
 49
1.0
 74
     0
 49
-1.0
 74
     0
 49
1.0
 74
     0
 49
-1.0
 74
     0
  0
LTYPE
  5
47
330
5
100
AcDbSymbolTableRecord
100
AcDbLinetypeTableRecord
  2
DASHED_SPACE
 70
     0
  3
DASHED_SPACE
 72
    65
 73
     2
 40
2.0
 49
1.0
 74
     0
 49
-1.0
 74
     0
  0
ENDTAB
  0
TABLE
  2
LAYER
  5
2
330
0
100
AcDbSymbolTable
 70
    12
  0
LAYER
  5
10
330
2
100
AcDbSymbolTableRecord
100
AcDbLayerTableRecord
  2
0
 70
     0
 62
     7
  6
Continuous
370
    -3
390
F
  0
LAYER
  5
48
330
2
100
AcDbSymbolTableRecord
100
AcDbLayerTableRecord
  2
1
 70
     0
 62
     7
  6
Continuous
370
    -3
390
F
  0
LAYER
  5
49
330
2
100
AcDbSymbolTableRecord
100
AcDbLayerTableRecord
  2
Bemaßungen_TC_020513_DIN_
 70
     0
 62
     7
  6
Continuous
370
    -3
390
F
  0
LAYER
  5
4A
330
2
100
AcDbSymbolTableRecord
100
AcDbLayerTableRecord
  2
Mittellinie_TC_020513_DIN_
 70
     0
 62
     7
  6
Continuous
370
    -3
390
F
  0
LAYER
  5
4B
330
2
100
AcDbSymbolTableRecord
100
AcDbLayerTableRecord
  2
Mittelpunktmarkierung_TC_020513_DIN_
 70
     0
 62
     7
  6
Continuous
370
    -3
390
F
  0
LAYER
  5
4C
330
2
100
AcDbSymbolTableRecord
100
AcDbLayerTableRecord
  2
Schraffur
 70
     0
 62
     7
  6
Continuous
370
    -3
390
F
  0
LAYER
  5
4D
330
2
100
AcDbSymbolTableRecord
100
AcDbLayerTableRecord
  2
Sichtbare_Kanten_TC_020513_DIN_
 70
     0
 62
     7
  6
Continuous
370
    -3
390
F
  0
LAYER
  5
4E
330
2
100
AcDbSymbolTableRecord
100
AcDbLayerTableRecord
  2
Skizziergeometrie_ISO_
 70
     0
 62
     7
  6
Continuous
370
    -3
390
F
  0
LAYER
  5
4F
330
2
100
AcDbSymbolTableRecord
100
AcDbLayerTableRecord
  2
Skizziergeometrie_TC_020513_DIN_
 70
     0
 62
     7
  6
Continuous
370
    -3
390
F
  0
LAYER
  5
50
330
2
100
AcDbSymbolTableRecord
100
AcDbLayerTableRecord
  2
Stich_1-Linien_TC_020513_DIN_
 70
     0
 62
     7
  6
Continuous
370
    -3
390
F
  0
LAYER
  5
51
330
2
100
AcDbSymbolTableRecord
100
AcDbLayerTableRecord
  2
Symbole_ISO_
 70
     0
 62
     7
  6
Continuous
370
    -3
390
F
  0
LAYER
  5
52
330
2
100
AcDbSymbolTableRecord
100
AcDbLayerTableRecord
  2
Symbole_TC_020513_DIN_
 70
     0
 62
     7
  6
Continuous
370
    -3
390
F
  0
ENDTAB
  0
TABLE
  2
STYLE
  5
3
330
0
100
AcDbSymbolTable
 70
     5
  0
STYLE
  5
11
330
3
100
AcDbSymbolTableRecord
100
AcDbTextStyleTableRecord
  2
Standard
 70
     0
 40
0.0
 41
1.0
 50
0.0
 71
     0
 42
0.2
  3
txt
  4

  0
STYLE
  5
68
330
3
100
AcDbSymbolTableRecord
100
AcDbTextStyleTableRecord
  2
CONVERTER_11
 70
     0
 40
0.0
 41
1.6
 50
0.0
 71
     0
 42
0.2
  3
ARIAL.TTF
  4

  0
STYLE
  5
CA
330
3
100
AcDbSymbolTableRecord
100
AcDbTextStyleTableRecord
  2
CONVERTER_12
 70
     0
 40
0.0
 41
1.27999992370606
 50
0.0
 71
     0
 42
0.2
  3
ARIAL.TTF
  4

  0
STYLE
  5
CC
330
3
100
AcDbSymbolTableRecord
100
AcDbTextStyleTableRecord
  2
CONVERTER_13
 70
     0
 40
0.0
 41
1.43999996185303
 50
0.0
 71
     0
 42
0.2
  3
ARIAL.TTF
  4

  0
STYLE
  5
3EE
330
3
100
AcDbSymbolTableRecord
100
AcDbTextStyleTableRecord
  2
CONVERTER_14
 70
     0
 40
0.0
 41
1.91999988555908
 50
0.0
 71
     0
 42
0.2
  3
ARIAL.TTF
  4

  0
ENDTAB
  0
TABLE
  2
VIEW
  5
6
330
0
100
AcDbSymbolTable
 70
     0
  0
ENDTAB
  0
TABLE
  2
UCS
  5
7
330
0
100
AcDbSymbolTable
 70
     0
  0
ENDTAB
  0
TABLE
  2
APPID
  5
9
330
0
100
AcDbSymbolTable
 70
     1
  0
APPID
  5
12
330
9
100
AcDbSymbolTableRecord
100
AcDbRegAppTableRecord
  2
ACAD
 70
     0
  0
ENDTAB
  0
TABLE
  2
DIMSTYLE
  5
A
330
0
100
AcDbSymbolTable
 70
    14
100
AcDbDimStyleTable
  0
DIMSTYLE
105
27
330
A
100
AcDbSymbolTableRecord
100
AcDbDimStyleTableRecord
  2
Standard
 70
     0
178
     0
340
11
  0
DIMSTYLE
105
3FB
102
{ACAD_REACTORS
330
3FC
102
}
330
A
100
AcDbSymbolTableRecord
100
AcDbDimStyleTableRecord
  2
ME10_DIM_10
 70
     0
 41
5.0
 42
2.0
 44
4.0
 73
     0
 74
     0
 77
     1
 78
    12
140
7.0
147
0.8
172
     1
173
     1
174
     1
175
     1
176
     7
177
     7
271
     2
178
     7
271
     2
340
68
  0
DIMSTYLE
105
406
102
{ACAD_REACTORS
330
407
102
}
330
A
100
AcDbSymbolTableRecord
100
AcDbDimStyleTableRecord
  2
ME10_DIM_11
 70
     0
 41
5.0
 42
2.0
 44
4.0
 73
     0
 74
     0
 77
     1
 78
    12
140
7.0
147
0.8
172
     1
173
     1
174
     1
175
     1
176
     7
177
     7
271
     2
178
     7
271
     2
340
68
  0
DIMSTYLE
105
411
102
{ACAD_REACTORS
330
412
102
}
330
A
100
AcDbSymbolTableRecord
100
AcDbDimStyleTableRecord
  2
ME10_DIM_12
 70
     0
 41
5.0
 42
2.0
 44
4.0
 73
     0
 74
     0
 77
     1
 78
    12
140
7.0
147
0.8
172
     1
173
     1
174
     1
175
     1
176
     7
177
     7
271
     2
178
     7
271
     2
340
68
  0
DIMSTYLE
105
41E
102
{ACAD_REACTORS
330
41F
102
}
330
A
100
AcDbSymbolTableRecord
100
AcDbDimStyleTableRecord
  2
ME10_DIM_13
 70
     0
 41
5.0
 42
2.0
 44
4.0
 73
     0
 74
     0
 77
     1
 78
    12
140
7.0
147
0.8
172
     1
173
     1
174
     1
175
     1
176
     7
177
     7
271
     2
178
     7
271
     2
340
68
  0
DIMSTYLE
105
429
102
{ACAD_REACTORS
330
42A
102
}
330
A
100
AcDbSymbolTableRecord
100
AcDbDimStyleTableRecord
  2
ME10_DIM_14
 70
     0
 41
5.0
 42
2.0
 44
4.0
 73
     0
 74
     0
 77
     1
 78
    12
140
7.0
147
0.8
172
     1
173
     1
174
     1
175
     1
176
     7
177
     7
271
     2
178
     7
271
     2
340
68
  0
DIMSTYLE
105
434
102
{ACAD_REACTORS
330
435
102
}
330
A
100
AcDbSymbolTableRecord
100
AcDbDimStyleTableRecord
  2
ME10_DIM_15
 70
     0
 41
5.0
 42
2.0
 44
4.0
 73
     0
 74
     0
 77
     1
 78
    12
140
7.0
147
0.8
172
     1
173
     1
174
     1
175
     1
176
     7
177
     7
271
     2
178
     7
271
     2
340
68
  0
DIMSTYLE
105
43F
102
{ACAD_REACTORS
330
440
102
}
330
A
100
AcDbSymbolTableRecord
100
AcDbDimStyleTableRecord
  2
ME10_DIM_16
 70
     0
 41
5.0
 42
2.0
 44
4.0
 73
     0
 74
     0
 77
     1
 78
    12
140
7.0
147
0.8
172
     1
173
     1
174
     1
175
     1
176
     7
177
     7
271
     2
178
     7
271
     2
340
68
  0
DIMSTYLE
105
44A
102
{ACAD_REACTORS
330
44B
102
}
330
A
100
AcDbSymbolTableRecord
100
AcDbDimStyleTableRecord
  2
ME10_DIM_17
 70
     0
 41
5.0
 42
2.0
 44
4.0
 73
     0
 74
     0
 77
     1
 78
    12
140
7.0
147
0.8
172
     1
173
     1
174
     1
175
     1
176
     7
177
     7
271
     2
178
     7
271
     2
340
68
  0
DIMSTYLE
105
455
102
{ACAD_REACTORS
330
456
102
}
330
A
100
AcDbSymbolTableRecord
100
AcDbDimStyleTableRecord
  2
ME10_DIM_18
 70
     0
 41
5.0
 42
2.0
 44
4.0
 73
     0
 74
     0
 77
     1
 78
    12
140
7.0
147
0.8
172
     1
173
     1
174
     1
175
     1
176
     7
177
     7
271
     2
178
     7
271
     2
340
68
  0
DIMSTYLE
105
460
102
{ACAD_REACTORS
330
461
102
}
330
A
100
AcDbSymbolTableRecord
100
AcDbDimStyleTableRecord
  2
ME10_DIM_19
 70
     0
 41
5.0
 42
2.0
 44
4.0
 73
     0
 74
     0
 77
     1
 78
    12
140
7.0
147
0.8
172
     1
173
     1
174
     1
175
     1
176
     7
177
     7
271
     2
178
     7
271
     2
340
68
  0
DIMSTYLE
105
46B
102
{ACAD_REACTORS
330
46C
102
}
330
A
100
AcDbSymbolTableRecord
100
AcDbDimStyleTableRecord
  2
ME10_DIM_20
 70
     0
 41
5.0
 42
2.0
 44
4.0
 73
     0
 74
     0
 77
     1
 78
    12
140
7.0
147
0.8
172
     1
173
     1
174
     1
175
     1
176
     7
177
     7
271
     2
178
     7
271
     2
340
68
  0
DIMSTYLE
105
476
102
{ACAD_REACTORS
330
477
102
}
330
A
100
AcDbSymbolTableRecord
100
AcDbDimStyleTableRecord
  2
ME10_DIM_21
 70
     0
 41
5.0
 42
2.0
 44
4.0
 73
     0
 74
     0
 77
     1
 78
    12
140
7.0
147
0.8
172
     1
173
     1
174
     1
175
     1
176
     7
177
     7
271
     2
178
     7
271
     2
340
68
  0
DIMSTYLE
105
483
102
{ACAD_REACTORS
330
484
102
}
330
A
100
AcDbSymbolTableRecord
100
AcDbDimStyleTableRecord
  2
ME10_DIM_22
 70
     0
 41
5.0
 42
2.0
 44
4.0
 73
     0
 74
     0
 77
     1
 78
    12
140
7.0
147
0.8
172
     1
173
     1
174
     1
175
     1
176
     7
177
     7
271
     2
178
     7
271
     2
340
68
  0
ENDTAB
  0
TABLE
  2
BLOCK_RECORD
  5
1
330
0
100
AcDbSymbolTable
 70
    17
  0
BLOCK_RECORD
  5
1F
330
1
100
AcDbSymbolTableRecord
100
AcDbBlockTableRecord
  2
*Model_Space
340
22
  0
BLOCK_RECORD
  5
1B
330
1
100
AcDbSymbolTableRecord
100
AcDbBlockTableRecord
  2
*Paper_Space
340
1E
  0
BLOCK_RECORD
  5
23
330
1
100
AcDbSymbolTableRecord
100
AcDbBlockTableRecord
  2
*Paper_Space0
340
26
  0
BLOCK_RECORD
  5
53
330
1
100
AcDbSymbolTableRecord
100
AcDbBlockTableRecord
  2
_D15
340
0
102
{BLKREFS
331
5C
102
}
  0
BLOCK_RECORD
  5
56
330
1
100
AcDbSymbolTableRecord
100
AcDbBlockTableRecord
  2
Schriftfelder_Ilme
340
0
102
{BLKREFS
331
5D
102
}
  0
BLOCK_RECORD
  5
59
330
1
100
AcDbSymbolTableRecord
100
AcDbBlockTableRecord
  2
Ränder_Ilme_Rahmen_A4_quer
340
0
102
{BLKREFS
331
5E
102
}
  0
BLOCK_RECORD
  5
3F2
330
1
100
AcDbSymbolTableRecord
100
AcDbBlockTableRecord
  2
*D4
340
0
  0
BLOCK_RECORD
  5
3FD
330
1
100
AcDbSymbolTableRecord
100
AcDbBlockTableRecord
  2
*D5
340
0
  0
BLOCK_RECORD
  5
408
330
1
100
AcDbSymbolTableRecord
100
AcDbBlockTableRecord
  2
*D6
340
0
  0
BLOCK_RECORD
  5
413
330
1
100
AcDbSymbolTableRecord
100
AcDbBlockTableRecord
  2
*D7
340
0
  0
BLOCK_RECORD
  5
420
330
1
100
AcDbSymbolTableRecord
100
AcDbBlockTableRecord
  2
*D8
340
0
  0
BLOCK_RECORD
  5
42B
330
1
100
AcDbSymbolTableRecord
100
AcDbBlockTableRecord
  2
*D9
340
0
  0
BLOCK_RECORD
  5
436
330
1
100
AcDbSymbolTableRecord
100
AcDbBlockTableRecord
  2
*D10
340
0
  0
BLOCK_RECORD
  5
441
330
1
100
AcDbSymbolTableRecord
100
AcDbBlockTableRecord
  2
*D11
340
0
  0
BLOCK_RECORD
  5
44C
330
1
100
AcDbSymbolTableRecord
100
AcDbBlockTableRecord
  2
*D12
340
0
  0
BLOCK_RECORD
  5
457
330
1
100
AcDbSymbolTableRecord
100
AcDbBlockTableRecord
  2
*D13
340
0
  0
BLOCK_RECORD
  5
462
330
1
100
AcDbSymbolTableRecord
100
AcDbBlockTableRecord
  2
*D14
340
0
  0
BLOCK_RECORD
  5
46D
330
1
100
AcDbSymbolTableRecord
100
AcDbBlockTableRecord
  2
*D15
340
0
  0
BLOCK_RECORD
  5
478
330
1
100
AcDbSymbolTableRecord
100
AcDbBlockTableRecord
  2
*D16
340
0
  0
ENDTAB
  0
ENDSEC
  0
SECTION
  2
BLOCKS
  0
BLOCK
  5
20
330
1F
100
AcDbEntity
  8
0
100
AcDbBlockBegin
  2
*Model_Space
 70
     0
 10
0.0
 20
0.0
 30
0.0
  3
*Model_Space
  1

  0
ENDBLK
  5
21
330
1F
100
AcDbEntity
  8
0
100
AcDbBlockEnd
  0
BLOCK
  5
1C
330
1B
100
AcDbEntity
 67
     1
  8
0
100
AcDbBlockBegin
  2
*Paper_Space
 70
     0
 10
0.0
 20
0.0
 30
0.0
  3
*Paper_Space
  1

  0
ENDBLK
  5
1D
330
1B
100
AcDbEntity
 67
     1
  8
0
100
AcDbBlockEnd
  0
BLOCK
  5
24
330
23
100
AcDbEntity
  8
0
100
AcDbBlockBegin
  2
*Paper_Space0
 70
     0
 10
0.0
 20
0.0
 30
0.0
  3
*Paper_Space0
  1

  0
ENDBLK
  5
25
330
23
100
AcDbEntity
  8
0
100
AcDbBlockEnd
  0
BLOCK
  5
54
330
53
100
AcDbEntity
  8
0
100
AcDbBlockBegin
  2
_D15
 70
     0
 10
0.0
 20
0.0
 30
0.0
  3
_D15
  1

  0
LWPOLYLINE
  5
5F
102
{ACAD_REACTORS
330
6A
102
}
330
53
100
AcDbEntity
  8
Bemaßungen_TC_020513_DIN_
  6
Continuous
 62
     7
100
AcDbPolyline
 90
        2
 70
     0
 43
0.25
 10
138.081780643389
 20
338.022133690129
 10
142.828574328978
 20
339.800445853641
  0
LWPOLYLINE
  5
60
102
{ACAD_REACTORS
330
6A
102
}
330
53
100
AcDbEntity
  8
Bemaßungen_TC_020513_DIN_
  6
Continuous
 62
     7
100
AcDbPolyline
 90
        2
 70
     0
 43
0.25
 10
141.995240995645
 20
341.243821526615
 10
138.081780643389
 20
338.022133690129
  0
LWPOLYLINE
  5
61
102
{ACAD_REACTORS
330
6A
102
}
330
53
100
AcDbEntity
  8
Bemaßungen_TC_020513_DIN_
  6
Continuous
 62
     7
100
AcDbPolyline
 90
        2
 70
     0
 43
0.25
 10
142.828574328978
 20
339.800445853641
 10
141.995240995645
 20
341.243821526615
  0
LWPOLYLINE
  5
62
102
{ACAD_REACTORS
330
6B
102
}
330
53
100
AcDbEntity
  8
Bemaßungen_TC_020513_DIN_
  6
Continuous
 62
     7
100
AcDbPolyline
 90
        2
 70
     0
 43
0.25
 10
135.830114593549
 20
336.722133690129
 10
131.916654241293
 20
333.500445853642
  0
LWPOLYLINE
  5
63
102
{ACAD_REACTORS
330
6B
102
}
330
53
100
AcDbEntity
  8
Bemaßungen_TC_020513_DIN_
  6
Continuous
 62
     7
100
AcDbPolyline
 90
        2
 70
     0
 43
0.25
 10
131.08332090796
 20
334.943821526616
 10
135.830114593549
 20
336.722133690129
  0
LWPOLYLINE
  5
64
102
{ACAD_REACTORS
330
6B
102
}
330
53
100
AcDbEntity
  8
Bemaßungen_TC_020513_DIN_
  6
Continuous
 62
     7
100
AcDbPolyline
 90
        2
 70
     0
 43
0.25
 10
131.916654241293
 20
333.500445853642
 10
131.08332090796
 20
334.943821526616
  0
LWPOLYLINE
  5
65
330
53
100
AcDbEntity
  8
Bemaßungen_TC_020513_DIN_
  6
Continuous
 62
     7
100
AcDbPolyline
 90
        2
 70
     0
 43
0.25
 10
135.830114593549
 20
336.722133690129
 10
138.081780643389
 20
338.022133690129
  0
LWPOLYLINE
  5
66
330
53
100
AcDbEntity
  8
Bemaßungen_TC_020513_DIN_
  6
Continuous
 62
     7
100
AcDbPolyline
 90
        2
 70
     0
 43
0.25
 10
142.411907662311
 20
340.522133690128
 10
168.381310381592
 20
355.515575340796
  0
LWPOLYLINE
  5
67
330
53
100
AcDbEntity
  8
Bemaßungen_TC_020513_DIN_
  6
Continuous
 62
     7
100
AcDbPolyline
 90
        2
 70
     0
 43
0.25
 10
131.499987574627
 20
334.222133690129
 10
127.169860555704
 20
331.722133690129
  0
MTEXT
  5
69
330
53
100
AcDbEntity
  8
Bemaßungen_TC_020513_DIN_
 62
     7
100
AcDbMText
 10
144.196481326089
 20
353.379552866764
 30
0.0
 40
7.0
 41
0.0
 71
     1
 72
     1
  1
{\Fgdt;n}6,5
  7
CONVERTER_11
 11
0.866025403784479
 21
0.4999999999999301
 31
0.0
 73
     1
 44
1.0
  0
HATCH
  5
6A
330
53
100
AcDbEntity
  8
Bemaßungen_TC_020513_DIN_
  6
Continuous
 62
     7
100
AcDbHatch
 10
0.0
 20
0.0
 30
0.0
210
0.0
220
0.0
230
1.0
  2
SOLID
 70
     1
 71
     1
 91
        1
 92
        1
 93
        3
 72
     1
 10
141.995240995645
 20
341.243821526615
 11
138.081780643389
 21
338.022133690129
 72
     1
 10
138.081780643389
 20
338.022133690129
 11
142.828574328978
 21
339.800445853641
 72
     1
 10
142.828574328978
 20
339.800445853641
 11
141.995240995645
 21
341.243821526615
 97
        3
330
5F
330
60
330
61
 75
     0
 76
     1
 98
        1
 10
0.0
 20
0.0
  0
HATCH
  5
6B
330
53
100
AcDbEntity
  8
Bemaßungen_TC_020513_DIN_
  6
Continuous
 62
     7
100
AcDbHatch
 10
0.0
 20
0.0
 30
0.0
210
0.0
220
0.0
230
1.0
  2
SOLID
 70
     1
 71
     1
 91
        1
 92
        1
 93
        3
 72
     1
 10
131.08332090796
 20
334.943821526616
 11
135.830114593549
 21
336.722133690129
 72
     1
 10
135.830114593549
 20
336.722133690129
 11
131.916654241293
 21
333.500445853642
 72
     1
 10
131.916654241293
 20
333.500445853642
 11
131.08332090796
 21
334.943821526616
 97
        3
330
62
330
63
330
64
 75
     0
 76
     1
 98
        1
 10
0.0
 20
0.0
  0
ENDBLK
  5
55
330
53
100
AcDbEntity
  8
0
100
AcDbBlockEnd
  0
BLOCK
  5
57
330
56
100
AcDbEntity
  8
0
100
AcDbBlockBegin
  2
Schriftfelder_Ilme
 70
     0
 10
0.0
 20
0.0
 30
0.0
  3
Schriftfelder_Ilme
  1

  0
LWPOLYLINE
  5
6C
330
56
100
AcDbEntity
  8
Skizziergeometrie_ISO_
  6
Continuous
 62
     7
100
AcDbPolyline
 90
        2
 70
     0
 43
0.5
 10
19.980189950303
 20
45.0006400926262
 10
19.980189950303
 20
10.0006400926262
  0
LWPOLYLINE
  5
6D
330
56
100
AcDbEntity
  8
Skizziergeometrie_ISO_
  6
Continuous
 62
     7
100
AcDbPolyline
 90
        2
 70
     0
 43
0.5
 10
189.655184537377
 20
14.2880685085818
 10
189.655184537377
 20
19.2535360148728
  0
LWPOLYLINE
  5
6E
330
56
100
AcDbEntity
  8
Skizziergeometrie_ISO_
  6
Continuous
 62
     7
100
AcDbPolyline
 90
        2
 70
     0
 43
0.5
 10
189.655184537377
 20
19.2535360148728
 10
188.7995275176
 20
17.7714945827671
  0
LWPOLYLINE
  5
6F
330
56
100
AcDbEntity
  8
Skizziergeometrie_ISO_
  6
Continuous
 62
     7
100
AcDbPolyline
 90
        2
 70
     0
 43
0.5
 10
188.510852383006
 20
17.7714945827671
 10
187.655195363229
 20
19.2535360148728
  0
LWPOLYLINE
  5
70
330
56
100
AcDbEntity
  8
Skizziergeometrie_ISO_
  6
Continuous
 62
     7
100
AcDbPolyline
 90
        2
 70
     0
 43
0.5
 10
187.655195363229
 20
19.2535360148728
 10
187.655195363229
 20
15.8473707016896
  0
LWPOLYLINE
  5
71
330
56
100
AcDbEntity
  8
Skizziergeometrie_ISO_
  6
Continuous
 62
     7
100
AcDbPolyline
 90
        2
 70
     0
 43
0.5
 10
180.238754675162
 20
17.6450043569675
 10
188.655189950303
 20
22.500640092627
  0
LWPOLYLINE
  5
72
330
56
100
AcDbEntity
  8
Skizziergeometrie_ISO_
  6
Continuous
 62
     7
100
AcDbPolyline
 90
        2
 70
     0
 43
0.5
 10
188.655189950303
 20
22.500640092627
 10
197.071625225444
 20
17.6450043569675
  0
LWPOLYLINE
  5
73
330
56
100
AcDbEntity
  8
Skizziergeometrie_ISO_
  6
Continuous
 62
     7
100
AcDbPolyline
 90
        2
 70
     0
 43
0.5
 10
197.071625225444
 20
17.3562758282849
 10
188.655189950303
 20
12.5006400926254
  0
LWPOLYLINE
  5
74
330
56
100
AcDbEntity
  8
Skizziergeometrie_ISO_
  6
Continuous
 62
     7
100
AcDbPolyline
 90
        2
 70
     0
 43
0.5
 10
188.655189950303
 20
12.5006400926254
 10
180.238754675162
 20
17.3562758282849
  0
LWPOLYLINE
  5
75
330
56
100
AcDbEntity
  8
Skizziergeometrie_ISO_
  6
Continuous
 62
     7
100
AcDbPolyline
 90
        2
 70
     0
 43
0.5
 10
186.988528696563
 20
15.8473707016896
 10
186.988528696562
 20
20.7526980593071
  0
LWPOLYLINE
  5
76
330
56
100
AcDbEntity
  8
Skizziergeometrie_ISO_
  6
Continuous
 62
     7
100
AcDbPolyline
 90
        2
 70
     0
 43
0.5
 10
187.482962380186
 20
20.8851811655447
 10
188.655189950303
 20
18.8548234560689
  0
LWPOLYLINE
  5
77
330
56
100
AcDbEntity
  8
Skizziergeometrie_ISO_
  6
Continuous
 62
     7
100
AcDbPolyline
 90
        2
 70
     0
 43
0.5
 10
190.321851204044
 20
14.2880685085818
 10
190.321851204044
 20
20.752698059307
  0
LWPOLYLINE
  5
78
330
56
100
AcDbEntity
  8
Skizziergeometrie_ISO_
  6
Continuous
 62
     7
100
AcDbPolyline
 90
        2
 70
     0
 43
0.5
 10
189.82741752042
 20
20.8851811655447
 10
188.655189950303
 20
18.8548234560689
  0
LWPOLYLINE
  5
79
330
56
100
AcDbEntity
  8
Skizziergeometrie_ISO_
  6
Continuous
 62
     7
100
AcDbPolyline
 90
        2
 70
     0
 43
0.5
 10
185.655190959106
 20
15.2706619304882
 10
185.655190959106
 20
19.9439783665993
  0
LWPOLYLINE
  5
7A
330
56
100
AcDbEntity
  8
Skizziergeometrie_ISO_
  6
Continuous
 62
     7
100
AcDbPolyline
 90
        2
 70
     0
 43
0.5
 10
186.321857625773
 20
19.9439783665993
 10
186.321857625773
 20
15.270660658657
  0
LWPOLYLINE
  5
7B
330
56
100
AcDbEntity
  8
Skizziergeometrie_ISO_
  6
Continuous
 62
     7
100
AcDbPolyline
 90
        2
 70
     0
 43
0.5
 10
186.321857625773
 20
15.270660658657
 10
188.489493932086
 20
14.0201012511681
  0
LWPOLYLINE
  5
7C
330
56
100
AcDbEntity
  8
Skizziergeometrie_ISO_
  6
Continuous
 62
     7
100
AcDbPolyline
 90
        2
 70
     0
 43
0.5
 10
188.15634562976
 20
13.4426441938023
 10
185.988710425088
 20
14.6932029657285
  0
LWPOLYLINE
  5
7D
330
56
100
AcDbEntity
  8
Skizziergeometrie_ISO_
  6
Continuous
 62
     7
100
AcDbPolyline
 90
        2
 70
     0
 43
0.5
 10
184.988523283636
 20
19.1539094835628
 10
184.988523283636
 20
15.8473707016896
  0
LWPOLYLINE
  5
7E
330
56
100
AcDbEntity
  8
Skizziergeometrie_ISO_
  6
Continuous
 62
     7
100
AcDbPolyline
 90
        2
 70
     0
 43
0.5
 10
184.32185661697
 20
15.8473707016896
 10
184.32185661697
 20
19.1539094835628
  0
LWPOLYLINE
  5
7F
330
56
100
AcDbEntity
  8
Skizziergeometrie_ISO_
  6
Continuous
 62
     7
100
AcDbPolyline
 90
        2
 70
     0
 43
0.5
 10
191.48842975933
 20
20.2327068952822
 10
192.857882489926
 20
19.4426380122457
  0
LWPOLYLINE
  5
80
330
56
100
AcDbEntity
  8
Skizziergeometrie_ISO_
  6
Continuous
 62
     7
100
AcDbPolyline
 90
        2
 70
     0
 43
0.5
 10
192.5247341876
 20
18.8651809548799
 10
191.6551889415
 20
19.3668416737836
  0
LWPOLYLINE
  5
81
330
56
100
AcDbEntity
  8
Skizziergeometrie_ISO_
  6
Continuous
 62
     7
100
AcDbPolyline
 90
        2
 70
     0
 43
0.5
 10
191.6551889415
 20
19.3668416737836
 10
191.6551889415
 20
17.8339734259596
  0
LWPOLYLINE
  5
82
330
56
100
AcDbEntity
  8
Skizziergeometrie_ISO_
  6
Continuous
 62
     7
100
AcDbPolyline
 90
        2
 70
     0
 43
0.5
 10
191.6551889415
 20
17.8339734259596
 10
192.691308338763
 20
17.8339734259596
  0
LWPOLYLINE
  5
83
330
56
100
AcDbEntity
  8
Skizziergeometrie_ISO_
  6
Continuous
 62
     7
100
AcDbPolyline
 90
        2
 70
     0
 43
0.5
 10
192.691308338763
 20
17.1673067592928
 10
191.6551889415
 20
17.1673067592928
  0
LWPOLYLINE
  5
84
330
56
100
AcDbEntity
  8
Skizziergeometrie_ISO_
  6
Continuous
 62
     7
100
AcDbPolyline
 90
        2
 70
     0
 43
0.5
 10
191.6551889415
 20
17.1673067592928
 10
191.6551889415
 20
15.6344385114688
  0
LWPOLYLINE
  5
85
330
56
100
AcDbEntity
  8
Skizziergeometrie_ISO_
  6
Continuous
 62
     7
100
AcDbPolyline
 90
        2
 70
     0
 43
0.5
 10
191.6551889415
 20
15.6344385114688
 10
192.5247341876
 20
16.1360992303725
  0
LWPOLYLINE
  5
86
330
56
100
AcDbEntity
  8
Skizziergeometrie_ISO_
  6
Continuous
 62
     7
100
AcDbPolyline
 90
        2
 70
     0
 43
0.5
 10
192.857882489926
 20
15.5586421730067
 10
191.48842975933
 20
14.7685732899702
  0
LWPOLYLINE
  5
87
330
56
100
AcDbEntity
  8
Skizziergeometrie_ISO_
  6
Continuous
 62
     7
100
AcDbPolyline
 90
        2
 70
     0
 43
0.5
 10
190.988522274833
 20
15.0573018186531
 10
190.988522274833
 20
19.9439783665993
  0
LWPOLYLINE
  5
88
330
56
100
AcDbEntity
  8
Skizziergeometrie_ISO_
  6
Continuous
 62
     7
100
AcDbPolyline
 90
        2
 70
     0
 43
0.5
 10
177.330189950303
 20
25.0006400926262
 10
177.330189950303
 20
10.0006400926262
  0
LWPOLYLINE
  5
89
330
56
100
AcDbEntity
  8
Skizziergeometrie_ISO_
  6
Continuous
 62
     7
100
AcDbPolyline
 90
        2
 70
     0
 43
0.5
 10
159.980189950303
 20
25.0006400926262
 10
159.980189950303
 20
10.0006400926262
  0
LWPOLYLINE
  5
8A
330
56
100
AcDbEntity
  8
Skizziergeometrie_ISO_
  6
Continuous
 62
     7
100
AcDbPolyline
 90
        2
 70
     0
 43
0.5
 10
49.9801899503031
 20
10.0006400926262
 10
49.9801899503031
 20
25.0006400926262
  0
LWPOLYLINE
  5
8B
330
56
100
AcDbEntity
  8
Skizziergeometrie_ISO_
  6
Continuous
 62
     7
100
AcDbPolyline
 90
        2
 70
     0
 43
0.5
 10
44.980189950303
 20
45.0006400926262
 10
44.980189950303
 20
25.0006400926262
  0
LWPOLYLINE
  5
8C
330
56
100
AcDbEntity
  8
Skizziergeometrie_ISO_
  6
Continuous
 62
     7
100
AcDbPolyline
 90
        2
 70
     0
 43
0.5
 10
26.980189950303
 20
45.0006400926262
 10
26.980189950303
 20
25.0006400926262
  0
LWPOLYLINE
  5
8D
330
56
100
AcDbEntity
  8
Skizziergeometrie_ISO_
  6
Continuous
 62
     7
100
AcDbPolyline
 90
        2
 70
     0
 43
0.5
 10
19.980189950303
 20
17.5006400926262
 10
49.9801899503031
 20
17.5006400926262
  0
LWPOLYLINE
  5
8E
330
56
100
AcDbEntity
  8
Skizziergeometrie_ISO_
  6
Continuous
 62
     7
100
AcDbPolyline
 90
        2
 70
     0
 43
0.5
 10
19.980189950303
 20
25.0006400926262
 10
199.980189950303
 20
25.0006400926262
  0
LWPOLYLINE
  5
8F
330
56
100
AcDbEntity
  8
Skizziergeometrie_ISO_
  6
Continuous
 62
     7
100
AcDbPolyline
 90
        2
 70
     0
 43
0.5
 10
19.980189950303
 20
30.0006400926262
 10
199.980189950303
 20
30.0006400926262
  0
LWPOLYLINE
  5
90
330
56
100
AcDbEntity
  8
Skizziergeometrie_ISO_
  6
Continuous
 62
     7
100
AcDbPolyline
 90
        2
 70
     0
 43
0.5
 10
19.980189950303
 20
35.0006400926262
 10
199.980189950303
 20
35.0006400926262
  0
LWPOLYLINE
  5
91
330
56
100
AcDbEntity
  8
Skizziergeometrie_ISO_
  6
Continuous
 62
     7
100
AcDbPolyline
 90
        2
 70
     0
 43
0.5
 10
19.980189950303
 20
40.0006400926262
 10
199.980189950303
 20
40.0006400926262
  0
LWPOLYLINE
  5
92
330
56
100
AcDbEntity
  8
Skizziergeometrie_ISO_
  6
Continuous
 62
     7
100
AcDbPolyline
 90
        2
 70
     0
 43
0.5
 10
19.980189950303
 20
45.0006400926262
 10
199.980189950303
 20
45.0006400926262
  0
LINE
  5
93
102
{ACAD_REACTORS
330
D0
102
}
330
56
100
AcDbEntity
  8
0
  6
Continuous
 62
     7
100
AcDbLine
 10
192.857882489926
 20
15.5586421730067
 30
0.0
 11
191.48842975933
 21
14.7685732899702
 31
0.0
  0
LINE
  5
94
102
{ACAD_REACTORS
330
D0
102
}
330
56
100
AcDbEntity
  8
0
  6
Continuous
 62
     7
100
AcDbLine
 10
190.988522274833
 20
15.0573018186531
 30
0.0
 11
190.988522274833
 21
19.9439783665993
 31
0.0
  0
LINE
  5
95
102
{ACAD_REACTORS
330
D0
102
}
330
56
100
AcDbEntity
  8
0
  6
Continuous
 62
     7
100
AcDbLine
 10
191.48842975933
 20
20.2327068952822
 30
0.0
 11
192.857882489926
 21
19.4426380122457
 31
0.0
  0
LINE
  5
96
102
{ACAD_REACTORS
330
D0
102
}
330
56
100
AcDbEntity
  8
0
  6
Continuous
 62
     7
100
AcDbLine
 10
192.5247341876
 20
18.8651809548799
 30
0.0
 11
191.6551889415
 21
19.3668416737836
 31
0.0
  0
LINE
  5
97
102
{ACAD_REACTORS
330
D0
102
}
330
56
100
AcDbEntity
  8
0
  6
Continuous
 62
     7
100
AcDbLine
 10
191.6551889415
 20
19.3668416737836
 30
0.0
 11
191.6551889415
 21
17.8339734259596
 31
0.0
  0
LINE
  5
98
102
{ACAD_REACTORS
330
D0
102
}
330
56
100
AcDbEntity
  8
0
  6
Continuous
 62
     7
100
AcDbLine
 10
191.6551889415
 20
17.8339734259596
 30
0.0
 11
192.691308338763
 21
17.8339734259596
 31
0.0
  0
LINE
  5
99
102
{ACAD_REACTORS
330
D0
102
}
330
56
100
AcDbEntity
  8
0
  6
Continuous
 62
     7
100
AcDbLine
 10
192.691308338763
 20
17.1673067592928
 30
0.0
 11
191.6551889415
 21
17.1673067592928
 31
0.0
  0
LINE
  5
9A
102
{ACAD_REACTORS
330
D0
102
}
330
56
100
AcDbEntity
  8
0
  6
Continuous
 62
     7
100
AcDbLine
 10
191.6551889415
 20
17.1673067592928
 30
0.0
 11
191.6551889415
 21
15.6344385114688
 31
0.0
  0
LINE
  5
9B
102
{ACAD_REACTORS
330
D0
102
}
330
56
100
AcDbEntity
  8
0
  6
Continuous
 62
     7
100
AcDbLine
 10
191.6551889415
 20
15.6344385114688
 30
0.0
 11
192.5247341876
 21
16.1360992303725
 31
0.0
  0
LINE
  5
9C
102
{ACAD_REACTORS
330
D1
102
}
330
56
100
AcDbEntity
  8
0
  6
Continuous
 62
     7
100
AcDbLine
 10
186.988528696562
 20
20.7526980593071
 30
0.0
 11
186.988528696563
 21
15.8473707016896
 31
0.0
  0
LINE
  5
9D
102
{ACAD_REACTORS
330
D1
102
}
330
56
100
AcDbEntity
  8
0
  6
Continuous
 62
     7
100
AcDbLine
 10
187.655195363229
 20
15.8473707016896
 30
0.0
 11
187.655195363229
 21
19.2535360148728
 31
0.0
  0
LINE
  5
9E
102
{ACAD_REACTORS
330
D1
102
}
330
56
100
AcDbEntity
  8
0
  6
Continuous
 62
     7
100
AcDbLine
 10
187.655195363229
 20
19.2535360148728
 30
0.0
 11
188.510852383006
 21
17.7714945827671
 31
0.0
  0
LINE
  5
9F
102
{ACAD_REACTORS
330
D1
102
}
330
56
100
AcDbEntity
  8
0
  6
Continuous
 62
     7
100
AcDbLine
 10
188.7995275176
 20
17.7714945827671
 30
0.0
 11
189.655184537377
 21
19.2535360148728
 31
0.0
  0
LINE
  5
A0
102
{ACAD_REACTORS
330
D1
102
}
330
56
100
AcDbEntity
  8
0
  6
Continuous
 62
     7
100
AcDbLine
 10
189.655184537377
 20
19.2535360148728
 30
0.0
 11
189.655184537377
 21
14.2880685085818
 31
0.0
  0
LINE
  5
A1
102
{ACAD_REACTORS
330
D1
102
}
330
56
100
AcDbEntity
  8
0
  6
Continuous
 62
     7
100
AcDbLine
 10
190.321851204044
 20
14.2880685085818
 30
0.0
 11
190.321851204044
 21
20.752698059307
 31
0.0
  0
LINE
  5
A2
102
{ACAD_REACTORS
330
D1
102
}
330
56
100
AcDbEntity
  8
0
  6
Continuous
 62
     7
100
AcDbLine
 10
189.82741752042
 20
20.8851811655447
 30
0.0
 11
188.655189950303
 21
18.8548234560689
 31
0.0
  0
LINE
  5
A3
102
{ACAD_REACTORS
330
D1
102
}
330
56
100
AcDbEntity
  8
0
  6
Continuous
 62
     7
100
AcDbLine
 10
188.655189950303
 20
18.8548234560689
 30
0.0
 11
187.482962380186
 21
20.8851811655447
 31
0.0
  0
LINE
  5
A4
102
{ACAD_REACTORS
330
D2
102
}
330
56
100
AcDbEntity
  8
0
  6
Continuous
 62
     7
100
AcDbLine
 10
186.321857625773
 20
15.270660658657
 30
0.0
 11
186.321857625773
 21
19.9439783665993
 31
0.0
  0
LINE
  5
A5
102
{ACAD_REACTORS
330
D2
102
}
330
56
100
AcDbEntity
  8
0
  6
Continuous
 62
     7
100
AcDbLine
 10
185.655190959106
 20
19.9439783665993
 30
0.0
 11
185.655190959106
 21
15.2706619304882
 31
0.0
  0
LINE
  5
A6
102
{ACAD_REACTORS
330
D2
102
}
330
56
100
AcDbEntity
  8
0
  6
Continuous
 62
     7
100
AcDbLine
 10
185.988710425088
 20
14.6932029657285
 30
0.0
 11
188.15634562976
 21
13.4426441938023
 31
0.0
  0
LINE
  5
A7
102
{ACAD_REACTORS
330
D2
102
}
330
56
100
AcDbEntity
  8
0
  6
Continuous
 62
     7
100
AcDbLine
 10
188.489493932086
 20
14.0201012511681
 30
0.0
 11
186.321857625773
 21
15.270660658657
 31
0.0
  0
LINE
  5
A8
102
{ACAD_REACTORS
330
D3
102
}
330
56
100
AcDbEntity
  8
0
  6
Continuous
 62
     7
100
AcDbLine
 10
184.988523283636
 20
19.1539094835628
 30
0.0
 11
184.988523283636
 21
15.8473707016896
 31
0.0
  0
LINE
  5
A9
102
{ACAD_REACTORS
330
D3
102
}
330
56
100
AcDbEntity
  8
0
  6
Continuous
 62
     7
100
AcDbLine
 10
184.32185661697
 20
15.8473707016896
 30
0.0
 11
184.32185661697
 21
19.1539094835628
 31
0.0
  0
LWPOLYLINE
  5
AA
330
56
100
AcDbEntity
  8
Skizziergeometrie_ISO_
  6
Continuous
 62
     7
100
AcDbPolyline
 90
        2
 70
     0
 43
0.5
 10
188.510852383006
 20
17.7714945827671
 42
0.57735026918893
 10
188.7995275176
 20
17.7714945827671
 42
0.57735026918893
  0
LWPOLYLINE
  5
AB
330
56
100
AcDbEntity
  8
Skizziergeometrie_ISO_
  6
Continuous
 62
     7
100
AcDbPolyline
 90
        2
 70
     0
 43
0.5
 10
185.655190959106
 20
15.2706619304882
 42
0.26803505952206
 10
185.988710425088
 20
14.6932029657285
 42
0.26803505952206
  0
LWPOLYLINE
  5
AC
330
56
100
AcDbEntity
  8
Skizziergeometrie_ISO_
  6
Continuous
 62
     7
100
AcDbPolyline
 90
        2
 70
     0
 43
0.5
 10
180.238754675162
 20
17.6450043569675
 42
0.57756392459859
 10
180.238754675162
 20
17.3562758282849
 42
0.57756392459859
  0
LWPOLYLINE
  5
AD
330
56
100
AcDbEntity
  8
Skizziergeometrie_ISO_
  6
Continuous
 62
     7
100
AcDbPolyline
 90
        2
 70
     0
 43
0.5
 10
197.071625225444
 20
17.3562758282849
 42
0.57756392459859
 10
197.071625225444
 20
17.6450043569675
 42
0.57756392459859
  0
LWPOLYLINE
  5
AE
330
56
100
AcDbEntity
  8
Skizziergeometrie_ISO_
  6
Continuous
 62
     7
100
AcDbPolyline
 90
        2
 70
     0
 43
0.5
 10
191.48842975933
 20
20.2327068952822
 42
0.57724345630757
 10
190.988522274833
 20
19.9439783665993
 42
0.57724345630757
  0
LWPOLYLINE
  5
AF
330
56
100
AcDbEntity
  8
Skizziergeometrie_ISO_
  6
Continuous
 62
     7
100
AcDbPolyline
 90
        2
 70
     0
 43
0.5
 10
190.988522274833
 20
15.0573018186531
 42
0.57724345630757
 10
191.48842975933
 20
14.7685732899702
 42
0.57724345630757
  0
LWPOLYLINE
  5
B0
330
56
100
AcDbEntity
  8
Skizziergeometrie_ISO_
  6
Continuous
 62
     7
100
AcDbPolyline
 90
        2
 70
     0
 43
0.5
 10
187.482962380186
 20
20.8851811655447
 42
0.7673269879789
 10
186.988528696562
 20
20.7526980593071
 42
0.7673269879789
  0
LWPOLYLINE
  5
B1
330
56
100
AcDbEntity
  8
Skizziergeometrie_ISO_
  6
Continuous
 62
     7
100
AcDbPolyline
 90
        2
 70
     0
 43
0.5
 10
186.988528696563
 20
15.8473707016896
 42
1.0
 10
187.655195363229
 20
15.8473707016896
 42
1.0
  0
LWPOLYLINE
  5
B2
330
56
100
AcDbEntity
  8
Skizziergeometrie_ISO_
  6
Continuous
 62
     7
100
AcDbPolyline
 90
        2
 70
     0
 43
0.5
 10
189.655184537377
 20
14.2880685085818
 42
1.0
 10
190.321851204044
 20
14.2880685085818
 42
1.0
  0
LWPOLYLINE
  5
B3
330
56
100
AcDbEntity
  8
Skizziergeometrie_ISO_
  6
Continuous
 62
     7
100
AcDbPolyline
 90
        2
 70
     0
 43
0.5
 10
190.321851204044
 20
20.752698059307
 42
0.76732698797879
 10
189.82741752042
 20
20.8851811655447
 42
0.76732698797879
  0
LWPOLYLINE
  5
B4
330
56
100
AcDbEntity
  8
Skizziergeometrie_ISO_
  6
Continuous
 62
     7
100
AcDbPolyline
 90
        2
 70
     0
 43
0.5
 10
186.321857625773
 20
19.9439783665993
 42
1.0
 10
185.655190959106
 20
19.9439783665993
 42
1.0
  0
LWPOLYLINE
  5
B5
330
56
100
AcDbEntity
  8
Skizziergeometrie_ISO_
  6
Continuous
 62
     7
100
AcDbPolyline
 90
        2
 70
     0
 43
0.5
 10
188.15634562976
 20
13.4426441938023
 42
1.0
 10
188.489493932086
 20
14.0201012511681
 42
1.0
  0
LWPOLYLINE
  5
B6
330
56
100
AcDbEntity
  8
Skizziergeometrie_ISO_
  6
Continuous
 62
     7
100
AcDbPolyline
 90
        2
 70
     0
 43
0.5
 10
184.988523283636
 20
19.1539094835628
 42
1.0
 10
184.32185661697
 20
19.1539094835628
 42
1.0
  0
LWPOLYLINE
  5
B7
330
56
100
AcDbEntity
  8
Skizziergeometrie_ISO_
  6
Continuous
 62
     7
100
AcDbPolyline
 90
        2
 70
     0
 43
0.5
 10
184.32185661697
 20
15.8473707016896
 42
1.0
 10
184.988523283636
 20
15.8473707016896
 42
1.0
  0
LWPOLYLINE
  5
B8
330
56
100
AcDbEntity
  8
Skizziergeometrie_ISO_
  6
Continuous
 62
     7
100
AcDbPolyline
 90
        2
 70
     0
 43
0.5
 10
192.5247341876
 20
18.8651809548799
 42
1.00000000000004
 10
192.857882489926
 20
19.4426380122457
 42
1.00000000000004
  0
LWPOLYLINE
  5
B9
330
56
100
AcDbEntity
  8
Skizziergeometrie_ISO_
  6
Continuous
 62
     7
100
AcDbPolyline
 90
        2
 70
     0
 43
0.5
 10
192.691308338763
 20
17.1673067592928
 42
1.0
 10
192.691308338763
 20
17.8339734259596
 42
1.0
  0
LWPOLYLINE
  5
BA
330
56
100
AcDbEntity
  8
Skizziergeometrie_ISO_
  6
Continuous
 62
     7
100
AcDbPolyline
 90
        2
 70
     0
 43
0.5
 10
192.857882489926
 20
15.5586421730067
 42
1.00000000000004
 10
192.5247341876
 20
16.1360992303725
 42
1.00000000000004
  0
ARC
  5
BB
102
{ACAD_REACTORS
330
D0
102
}
330
56
100
AcDbEntity
  8
0
  6
Continuous
 62
     7
100
AcDbCircle
 10
191.321855608167
 20
15.0573018186531
 30
0.0
 40
0.3333333333339965
100
AcDbArc
 50
180.0
 51
299.9816393688164
  0
ARC
  5
BC
102
{ACAD_REACTORS
330
D0
102
}
330
56
100
AcDbEntity
  8
0
  6
Continuous
 62
     7
100
AcDbCircle
 10
191.321855608167
 20
19.9439783665993
 30
0.0
 40
0.3333333333332604
100
AcDbArc
 50
60.01836063118353
 51
180.0
  0
ARC
  5
BD
102
{ACAD_REACTORS
330
D0
102
}
330
56
100
AcDbEntity
  8
0
  6
Continuous
 62
     7
100
AcDbCircle
 10
192.691308338763
 20
19.1539094835628
 30
0.0
 40
0.3333333333332746
100
AcDbArc
 50
240.0183606311793
 51
60.01835942368935
  0
ARC
  5
BE
102
{ACAD_REACTORS
330
D0
102
}
330
56
100
AcDbEntity
  8
0
  6
Continuous
 62
     7
100
AcDbCircle
 10
192.691308338763
 20
17.5006400926262
 30
0.0
 40
0.3333333333333997
100
AcDbArc
 50
270.0
 51
90.0
  0
ARC
  5
BF
102
{ACAD_REACTORS
330
D0
102
}
330
56
100
AcDbEntity
  8
0
  6
Continuous
 62
     7
100
AcDbCircle
 10
192.691308338763
 20
15.8473707016896
 30
0.0
 40
0.3333333333332619
100
AcDbArc
 50
299.9816393688163
 51
119.9816393688206
  0
ARC
  5
C0
102
{ACAD_REACTORS
330
D1
102
}
330
56
100
AcDbEntity
  8
0
  6
Continuous
 62
     7
100
AcDbCircle
 10
187.253494909038
 20
20.7526980593071
 30
0.0
 40
0.2649662124751274
100
AcDbArc
 50
30.00000000000922
 51
180.0
  0
ARC
  5
C1
102
{ACAD_REACTORS
330
D1
102
}
330
56
100
AcDbEntity
  8
0
  6
Continuous
 62
     7
100
AcDbCircle
 10
187.321862029896
 20
15.8473707016896
 30
0.0
 40
0.3333333333330017
100
AcDbArc
 50
180.0
 51
0.0
  0
ARC
  5
C2
102
{ACAD_REACTORS
330
D1
102
}
330
56
100
AcDbEntity
  8
0
  6
Continuous
 62
     7
100
AcDbCircle
 10
188.655189950303
 20
17.8548279161004
 30
0.0
 40
0.1666666666662864
100
AcDbArc
 50
210.0000000000623
 51
329.9999999999426
  0
ARC
  5
C3
102
{ACAD_REACTORS
330
D1
102
}
330
56
100
AcDbEntity
  8
0
  6
Continuous
 62
     7
100
AcDbCircle
 10
189.98851787071
 20
14.2880685085818
 30
0.0
 40
0.3333333333330017
100
AcDbArc
 50
180.0
 51
0.0
  0
ARC
  5
C4
102
{ACAD_REACTORS
330
D1
102
}
330
56
100
AcDbEntity
  8
0
  6
Continuous
 62
     7
100
AcDbCircle
 10
190.056884991568
 20
20.752698059307
 30
0.0
 40
0.2649662124759971
100
AcDbArc
 50
0.0
 51
149.9999999999752
  0
ARC
  5
C5
102
{ACAD_REACTORS
330
D2
102
}
330
56
100
AcDbEntity
  8
0
  6
Continuous
 62
     7
100
AcDbCircle
 10
185.988524292439
 20
19.9439783665993
 30
0.0
 40
0.3333333333339965
100
AcDbArc
 50
0.0
 51
180.0
  0
ARC
  5
C6
102
{ACAD_REACTORS
330
D2
102
}
330
56
100
AcDbEntity
  8
0
  6
Continuous
 62
     7
100
AcDbCircle
 10
186.321859827834
 20
15.2706619304882
 30
0.0
 40
0.66666886872801
100
AcDbArc
 50
180.0
 51
240.0183606311481
  0
ARC
  5
C7
102
{ACAD_REACTORS
330
D2
102
}
330
56
100
AcDbEntity
  8
0
  6
Continuous
 62
     7
100
AcDbCircle
 10
188.322919780923
 20
13.7313727224852
 30
0.0
 40
0.3333333333332604
100
AcDbArc
 50
240.0183606311836
 51
60.01836063118368
  0
ARC
  5
C8
102
{ACAD_REACTORS
330
D3
102
}
330
56
100
AcDbEntity
  8
0
  6
Continuous
 62
     7
100
AcDbCircle
 10
184.655189950303
 20
15.8473707016896
 30
0.0
 40
0.3333333333330017
100
AcDbArc
 50
180.0
 51
0.0
  0
ARC
  5
C9
102
{ACAD_REACTORS
330
D3
102
}
330
56
100
AcDbEntity
  8
0
  6
Continuous
 62
     7
100
AcDbCircle
 10
184.655189950303
 20
19.1539094835628
 30
0.0
 40
0.3333333333330017
100
AcDbArc
 50
0.0
 51
180.0
  0
MTEXT
  5
CB
330
56
100
AcDbEntity
  8
Symbole_ISO_
 62
     7
100
AcDbMText
 10
39.980189950303
 20
21.2506400926262
 30
0.0
 40
3.49999994039535
 41
0.0
 71
     5
 72
     1
  1
14.12.2006
  7
CONVERTER_12
 73
     1
 44
1.0
  0
MTEXT
  5
CD
330
56
100
AcDbEntity
  8
Symbole_ISO_
 62
     7
100
AcDbMText
 10
168.655189950303
 20
22.5006400926262
 30
0.0
 40
2.5
 41
0.0
 71
     5
 72
     1
  1
Scale
  7
CONVERTER_13
 73
     1
 44
1.0
  0
MTEXT
  5
CE
330
56
100
AcDbEntity
  8
Symbole_ISO_
 62
     7
100
AcDbMText
 10
20.980189950303
 20
13.7506400926262
 30
0.0
 40
2.5
 41
0.0
 71
     4
 72
     1
  1
Sign.
  7
CONVERTER_13
 73
     1
 44
1.0
  0
MTEXT
  5
CF
330
56
100
AcDbEntity
  8
Symbole_ISO_
 62
     7
100
AcDbMText
 10
20.980189950303
 20
21.2506400926262
 30
0.0
 40
2.5
 41
0.0
 71
     4
 72
     1
  1
Date
  7
CONVERTER_13
 73
     1
 44
1.0
  0
HATCH
  5
D0
330
56
100
AcDbEntity
  8
Schraffur
  6
Continuous
 62
     7
100
AcDbHatch
 10
0.0
 20
0.0
 30
0.0
210
0.0
220
0.0
230
1.0
  2
SOLID
 70
     1
 71
     1
 91
        1
 92
        1
 93
       14
 72
     2
 10
192.691308338763
 20
19.1539094835628
 40
0.3333333333332746
 50
299.9816405763107
 51
479.9816393688208
 73
     0
 72
     1
 10
192.5247341876
 20
18.8651809548799
 11
191.6551889415
 21
19.3668416737836
 72
     1
 10
191.6551889415
 20
19.3668416737836
 11
191.6551889415
 21
17.8339734259596
 72
     1
 10
191.6551889415
 20
17.8339734259596
 11
192.691308338763
 21
17.8339734259596
 72
     2
 10
192.691308338763
 20
17.5006400926262
 40
0.3333333333333997
 50
270.0
 51
450.0
 73
     0
 72
     1
 10
192.691308338763
 20
17.1673067592928
 11
191.6551889415
 21
17.1673067592928
 72
     1
 10
191.6551889415
 20
17.1673067592928
 11
191.6551889415
 21
15.6344385114688
 72
     1
 10
191.6551889415
 20
15.6344385114688
 11
192.5247341876
 21
16.1360992303725
 72
     2
 10
192.691308338763
 20
15.8473707016896
 40
0.3333333333332619
 50
240.0183606311795
 51
420.0183606311837
 73
     0
 72
     1
 10
192.857882489926
 20
15.5586421730067
 11
191.48842975933
 21
14.7685732899702
 72
     2
 10
191.321855608167
 20
15.0573018186531
 40
0.3333333333339965
 50
60.01836063118353
 51
180.0
 73
     0
 72
     1
 10
190.988522274833
 20
15.0573018186531
 11
190.988522274833
 21
19.9439783665993
 72
     2
 10
191.321855608167
 20
19.9439783665993
 40
0.3333333333332604
 50
180.0
 51
299.9816393688164
 73
     0
 72
     1
 10
191.48842975933
 20
20.2327068952822
 11
192.857882489926
 21
19.4426380122457
 97
       14
330
93
330
BB
330
94
330
BC
330
95
330
BD
330
96
330
97
330
98
330
BE
330
99
330
9A
330
9B
330
BF
 75
     0
 76
     1
 98
        1
 10
0.0
 20
0.0
  0
HATCH
  5
D1
330
56
100
AcDbEntity
  8
Schraffur
  6
Continuous
 62
     7
100
AcDbHatch
 10
0.0
 20
0.0
 30
0.0
210
0.0
220
0.0
230
1.0
  2
SOLID
 70
     1
 71
     1
 91
        1
 92
        1
 93
       13
 72
     2
 10
187.253494909038
 20
20.7526980593071
 40
0.2649662124751274
 50
30.00000000000922
 51
180.0
 73
     1
 72
     1
 10
186.988528696562
 20
20.7526980593071
 11
186.988528696563
 21
15.8473707016896
 72
     2
 10
187.321862029896
 20
15.8473707016896
 40
0.3333333333330017
 50
180.0
 51
360.0
 73
     1
 72
     1
 10
187.655195363229
 20
15.8473707016896
 11
187.655195363229
 21
19.2535360148728
 72
     1
 10
187.655195363229
 20
19.2535360148728
 11
188.510852383006
 21
17.7714945827671
 72
     2
 10
188.655189950303
 20
17.8548279161004
 40
0.1666666666662864
 50
210.0000000000623
 51
329.9999999999426
 73
     1
 72
     1
 10
188.7995275176
 20
17.7714945827671
 11
189.655184537377
 21
19.2535360148728
 72
     1
 10
189.655184537377
 20
19.2535360148728
 11
189.655184537377
 21
14.2880685085818
 72
     2
 10
189.98851787071
 20
14.2880685085818
 40
0.3333333333330017
 50
180.0
 51
360.0
 73
     1
 72
     1
 10
190.321851204044
 20
14.2880685085818
 11
190.321851204044
 21
20.752698059307
 72
     2
 10
190.056884991568
 20
20.752698059307
 40
0.2649662124759971
 50
0.0
 51
149.9999999999752
 73
     1
 72
     1
 10
189.82741752042
 20
20.8851811655447
 11
188.655189950303
 21
18.8548234560689
 72
     1
 10
188.655189950303
 20
18.8548234560689
 11
187.482962380186
 21
20.8851811655447
 97
       13
330
A2
330
C4
330
A1
330
C3
330
A0
330
9F
330
C2
330
9E
330
9D
330
C1
330
9C
330
C0
330
A3
 75
     0
 76
     1
 98
        1
 10
0.0
 20
0.0
  0
HATCH
  5
D2
330
56
100
AcDbEntity
  8
Schraffur
  6
Continuous
 62
     7
100
AcDbHatch
 10
0.0
 20
0.0
 30
0.0
210
0.0
220
0.0
230
1.0
  2
SOLID
 70
     1
 71
     1
 91
        1
 92
        1
 93
        7
 72
     1
 10
186.321857625773
 20
15.270660658657
 11
186.321857625773
 21
19.9439783665993
 72
     2
 10
185.988524292439
 20
19.9439783665993
 40
0.3333333333339965
 50
0.0
 51
180.0
 73
     1
 72
     1
 10
185.655190959106
 20
19.9439783665993
 11
185.655190959106
 21
15.2706619304882
 72
     2
 10
186.321859827834
 20
15.2706619304882
 40
0.66666886872801
 50
180.0
 51
240.0183606311481
 73
     1
 72
     1
 10
185.988710425088
 20
14.6932029657285
 11
188.15634562976
 21
13.4426441938023
 72
     2
 10
188.322919780923
 20
13.7313727224852
 40
0.3333333333332604
 50
240.0183606311836
 51
420.0183606311837
 73
     1
 72
     1
 10
188.489493932086
 20
14.0201012511681
 11
186.321857625773
 21
15.270660658657
 97
        7
330
C7
330
A6
330
C6
330
A5
330
C5
330
A4
330
A7
 75
     0
 76
     1
 98
        1
 10
0.0
 20
0.0
  0
HATCH
  5
D3
330
56
100
AcDbEntity
  8
Schraffur
  6
Continuous
 62
     7
100
AcDbHatch
 10
0.0
 20
0.0
 30
0.0
210
0.0
220
0.0
230
1.0
  2
SOLID
 70
     1
 71
     1
 91
        1
 92
        1
 93
        4
 72
     1
 10
184.988523283636
 20
19.1539094835628
 11
184.988523283636
 21
15.8473707016896
 72
     2
 10
184.655189950303
 20
15.8473707016896
 40
0.3333333333330017
 50
0.0
 51
180.0
 73
     0
 72
     1
 10
184.32185661697
 20
15.8473707016896
 11
184.32185661697
 21
19.1539094835628
 72
     2
 10
184.655189950303
 20
19.1539094835628
 40
0.3333333333330017
 50
180.0
 51
360.0
 73
     0
 97
        4
330
A8
330
C8
330
A9
330
C9
 75
     0
 76
     1
 98
        1
 10
0.0
 20
0.0
  0
ENDBLK
  5
58
330
56
100
AcDbEntity
  8
0
100
AcDbBlockEnd
  0
BLOCK
  5
5A
330
59
100
AcDbEntity
  8
0
100
AcDbBlockBegin
  2
Ränder_Ilme_Rahmen_A4_quer
 70
     0
 10
0.0
 20
0.0
 30
0.0
  3
Ränder_Ilme_Rahmen_A4_quer
  1

  0
LWPOLYLINE
  5
D4
330
59
100
AcDbEntity
  8
Skizziergeometrie_ISO_
  6
Continuous
 62
     7
100
AcDbPolyline
 90
        2
 70
     0
 43
0.5
 10
287.0
 20
190.0
 10
287.0
 20
10.0
  0
LWPOLYLINE
  5
D5
330
59
100
AcDbEntity
  8
Skizziergeometrie_ISO_
  6
Continuous
 62
     7
100
AcDbPolyline
 90
        2
 70
     0
 43
0.5
 10
148.5
 20
210.0
 10
148.5
 20
196.0
  0
LWPOLYLINE
  5
D6
330
59
100
AcDbEntity
  8
Skizziergeometrie_ISO_
  6
Continuous
 62
     7
100
AcDbPolyline
 90
        2
 70
     0
 43
0.5
 10
9.99999999999998
 20
9.99999999999995
 10
287.0
 20
10.0
  0
LWPOLYLINE
  5
D7
330
59
100
AcDbEntity
  8
Skizziergeometrie_ISO_
  6
Continuous
 62
     7
100
AcDbPolyline
 90
        2
 70
     0
 43
0.5
 10
10.0
 20
190.0
 10
287.0
 20
190.0
  0
LWPOLYLINE
  5
D8
330
59
100
AcDbEntity
  8
Skizziergeometrie_ISO_
  6
Continuous
 62
     7
100
AcDbPolyline
 90
        2
 70
     0
 43
0.5
 10
9.99999999999998
 20
9.99999999999995
 10
10.0
 20
190.0
  0
MTEXT
  5
D9
330
59
100
AcDbEntity
  8
Symbole_ISO_
 62
     7
100
AcDbMText
 10
148.5
 20
196.0
 30
0.0
 40
3.5
 41
0.0
 71
     2
 72
     1
  1
Diritti riservati     All rights reserved
  7
CONVERTER_13
 73
     1
 44
1.0
  0
ENDBLK
  5
5B
330
59
100
AcDbEntity
  8
0
100
AcDbBlockEnd
  0
BLOCK
  5
3F9
330
3F2
100
AcDbEntity
  8
0
100
AcDbBlockBegin
  2
*D4
 70
     1
 10
0.0
 20
0.0
 30
0.0
  3
*D4
  1

  0
LINE
  5
3F3
330
3F2
100
AcDbEntity
  8
Bemaßungen_TC_020513_DIN_
  6
Continuous
 62
     7
100
AcDbLine
 10
561.018408574621
 20
253.2807785564837
 30
0.0
 11
561.018408574621
 21
189.5807785564837
 31
0.0
  0
LINE
  5
3F4
330
3F2
100
AcDbEntity
  8
Bemaßungen_TC_020513_DIN_
  6
Continuous
 62
     7
100
AcDbLine
 10
425.1577120572119
 20
253.2807785564837
 30
0.0
 11
565.018408574621
 21
253.2807785564837
 31
0.0
  0
LINE
  5
3F5
330
3F2
100
AcDbEntity
  8
Bemaßungen_TC_020513_DIN_
  6
Continuous
 62
     7
100
AcDbLine
 10
447.157712057208
 20
189.5807785564837
 30
0.0
 11
565.018408574621
 21
189.5807785564837
 31
0.0
  0
SOLID
  5
3F6
330
3F2
100
AcDbEntity
  8
Bemaßungen_TC_020513_DIN_
 62
     7
100
AcDbTrace
 10
561.6766710625581
 20
248.2807785564837
 30
0.0
 11
560.360146086684
 21
248.2807785564837
 31
0.0
 12
561.018408574621
 22
253.2807785564837
 32
0.0
 13
561.018408574621
 23
253.2807785564837
 33
0.0
  0
SOLID
  5
3F7
330
3F2
100
AcDbEntity
  8
Bemaßungen_TC_020513_DIN_
 62
     7
100
AcDbTrace
 10
560.360146086684
 20
194.5807785564837
 30
0.0
 11
561.6766710625581
 21
194.5807785564837
 31
0.0
 12
561.018408574621
 22
189.5807785564837
 32
0.0
 13
561.018408574621
 23
189.5807785564837
 33
0.0
  0
MTEXT
  5
3F8
330
3F2
100
AcDbEntity
  8
Bemaßungen_TC_020513_DIN_
 62
     7
100
AcDbMText
 10
554.4353871198214
 20
219.1336071149193
 30
0.0
 40
7.0
 41
0.0
 71
     7
 72
     1
  1
64
  7
CONVERTER_11
 11
0.0
 21
1.0
 31
0.0
 73
     1
 44
0.60024009603842
  0
ENDBLK
  5
3FA
330
3F2
100
AcDbEntity
  8
0
100
AcDbBlockEnd
  0
BLOCK
  5
404
330
3FD
100
AcDbEntity
  8
0
100
AcDbBlockBegin
  2
*D5
 70
     1
 10
0.0
 20
0.0
 30
0.0
  3
*D5
  1

  0
LINE
  5
3FE
330
3FD
100
AcDbEntity
  8
Bemaßungen_TC_020513_DIN_
  6
Continuous
 62
     7
100
AcDbLine
 10
156.890476422918
 20
170.7334517525771
 30
0.0
 11
292.3904764229181
 21
170.7334517525771
 31
0.0
  0
LINE
  5
3FF
330
3FD
100
AcDbEntity
  8
Bemaßungen_TC_020513_DIN_
  6
Continuous
 62
     7
100
AcDbLine
 10
156.890476422918
 20
200.0807785564839
 30
0.0
 11
156.890476422918
 21
166.7334517525771
 31
0.0
  0
LINE
  5
400
330
3FD
100
AcDbEntity
  8
Bemaßungen_TC_020513_DIN_
  6
Continuous
 62
     7
100
AcDbLine
 10
292.3904764229181
 20
200.0807785564839
 30
0.0
 11
292.3904764229181
 21
166.7334517525771
 31
0.0
  0
SOLID
  5
401
330
3FD
100
AcDbEntity
  8
Bemaßungen_TC_020513_DIN_
 62
     7
100
AcDbTrace
 10
161.890476422918
 20
171.3917142405141
 30
0.0
 11
161.890476422918
 21
170.0751892646401
 31
0.0
 12
156.890476422918
 22
170.7334517525771
 32
0.0
 13
156.890476422918
 23
170.7334517525771
 33
0.0
  0
SOLID
  5
402
330
3FD
100
AcDbEntity
  8
Bemaßungen_TC_020513_DIN_
 62
     7
100
AcDbTrace
 10
287.3904764229181
 20
170.0751892646401
 30
0.0
 11
287.3904764229181
 21
171.3917142405141
 31
0.0
 12
292.3904764229181
 22
170.7334517525771
 32
0.0
 13
292.3904764229181
 23
170.7334517525771
 33
0.0
  0
MTEXT
  5
403
330
3FD
100
AcDbEntity
  8
Bemaßungen_TC_020513_DIN_
 62
     7
100
AcDbMText
 10
213.8698097562514
 20
172.6478796132736
 30
0.0
 40
7.0
 41
0.0
 71
     7
 72
     1
  1
135,5
  7
CONVERTER_11
 11
0.9999999999970619
 21
2.424068405545306E-6
 31
0.0
 73
     1
 44
0.60024009603842
  0
ENDBLK
  5
405
330
3FD
100
AcDbEntity
  8
0
100
AcDbBlockEnd
  0
BLOCK
  5
40F
330
408
100
AcDbEntity
  8
0
100
AcDbBlockBegin
  2
*D6
 70
     1
 10
0.0
 20
0.0
 30
0.0
  3
*D6
  1

  0
LINE
  5
409
330
408
100
AcDbEntity
  8
Bemaßungen_TC_020513_DIN_
  6
Continuous
 62
     7
100
AcDbLine
 10
364.1577120572119
 20
154.679906862923
 30
0.0
 11
457.1577120572109
 21
154.679906862923
 31
0.0
  0
LINE
  5
40A
330
408
100
AcDbEntity
  8
Bemaßungen_TC_020513_DIN_
  6
Continuous
 62
     7
100
AcDbLine
 10
364.1577120572119
 20
187.580778556484
 30
0.0
 11
364.1577120572119
 21
150.679906862923
 31
0.0
  0
LINE
  5
40B
330
408
100
AcDbEntity
  8
Bemaßungen_TC_020513_DIN_
  6
Continuous
 62
     7
100
AcDbLine
 10
457.1577120572109
 20
191.080778556484
 30
0.0
 11
457.1577120572109
 21
150.679906862923
 31
0.0
  0
SOLID
  5
40C
330
408
100
AcDbEntity
  8
Bemaßungen_TC_020513_DIN_
 62
     7
100
AcDbTrace
 10
369.1577120572119
 20
155.33816935086
 30
0.0
 11
369.1577120572119
 21
154.0216443749861
 31
0.0
 12
364.1577120572119
 22
154.679906862923
 32
0.0
 13
364.1577120572119
 23
154.679906862923
 33
0.0
  0
SOLID
  5
40D
330
408
100
AcDbEntity
  8
Bemaßungen_TC_020513_DIN_
 62
     7
100
AcDbTrace
 10
452.1577120572109
 20
154.0216443749861
 30
0.0
 11
452.1577120572109
 21
155.33816935086
 31
0.0
 12
457.1577120572109
 22
154.679906862923
 32
0.0
 13
457.1577120572109
 23
154.679906862923
 33
0.0
  0
MTEXT
  5
40E
330
408
100
AcDbEntity
  8
Bemaßungen_TC_020513_DIN_
 62
     7
100
AcDbMText
 10
398.9199327856253
 20
155.5495586042166
 30
0.0
 40
7.0
 41
0.0
 71
     7
 72
     1
  1
93
  7
CONVERTER_11
 11
0.9999999999970619
 21
2.424068405545306E-6
 31
0.0
 73
     1
 44
0.60024009603842
  0
ENDBLK
  5
410
330
408
100
AcDbEntity
  8
0
100
AcDbBlockEnd
  0
BLOCK
  5
41C
330
413
100
AcDbEntity
  8
0
100
AcDbBlockBegin
  2
*D7
 70
     1
 10
0.0
 20
0.0
 30
0.0
  3
*D7
  1

  0
LINE
  5
414
330
413
100
AcDbEntity
  8
Bemaßungen_TC_020513_DIN_
  6
Continuous
 62
     7
100
AcDbLine
 10
512.444342343704
 20
201.0807785564835
 30
0.0
 11
512.444342343704
 21
211.0807785564835
 31
0.0
  0
LINE
  5
415
330
413
100
AcDbEntity
  8
Bemaßungen_TC_020513_DIN_
  6
Continuous
 62
     7
100
AcDbLine
 10
512.444342343704
 20
189.5807785564835
 30
0.0
 11
512.444342343704
 21
201.0807785564835
 31
0.0
  0
LINE
  5
416
330
413
100
AcDbEntity
  8
Bemaßungen_TC_020513_DIN_
  6
Continuous
 62
     7
100
AcDbLine
 10
512.444342343704
 20
157.629402052741
 30
0.0
 11
512.444342343704
 21
189.5807785564835
 31
0.0
  0
LINE
  5
417
330
413
100
AcDbEntity
  8
Bemaßungen_TC_020513_DIN_
  6
Continuous
 62
     7
100
AcDbLine
 10
452.1577120572101
 20
201.0807785564835
 30
0.0
 11
516.444342343704
 21
201.0807785564835
 31
0.0
  0
LINE
  5
418
330
413
100
AcDbEntity
  8
Bemaßungen_TC_020513_DIN_
  6
Continuous
 62
     7
100
AcDbLine
 10
447.1577120572081
 20
189.5807785564835
 30
0.0
 11
516.444342343704
 21
189.5807785564835
 31
0.0
  0
SOLID
  5
419
330
413
100
AcDbEntity
  8
Bemaßungen_TC_020513_DIN_
 62
     7
100
AcDbTrace
 10
513.102604831641
 20
184.5807785564835
 30
0.0
 11
511.786079855767
 21
184.5807785564835
 31
0.0
 12
512.444342343704
 22
189.5807785564835
 32
0.0
 13
512.444342343704
 23
189.5807785564835
 33
0.0
  0
SOLID
  5
41A
330
413
100
AcDbEntity
  8
Bemaßungen_TC_020513_DIN_
 62
     7
100
AcDbTrace
 10
511.786079855767
 20
206.0807785564835
 30
0.0
 11
513.102604831641
 21
206.0807785564835
 31
0.0
 12
512.444342343704
 22
201.0807785564835
 32
0.0
 13
512.444342343704
 23
201.0807785564835
 33
0.0
  0
MTEXT
  5
41B
330
413
100
AcDbEntity
  8
Bemaßungen_TC_020513_DIN_
 62
     7
100
AcDbMText
 10
510.3906110004204
 20
160.765402052741
 30
0.0
 40
7.0
 41
0.0
 71
     7
 72
     1
  1
11,5
  7
CONVERTER_11
 11
0.0
 21
1.0
 31
0.0
 73
     1
 44
0.60024009603842
  0
ENDBLK
  5
41D
330
413
100
AcDbEntity
  8
0
100
AcDbBlockEnd
  0
BLOCK
  5
427
330
420
100
AcDbEntity
  8
0
100
AcDbBlockBegin
  2
*D8
 70
     1
 10
0.0
 20
0.0
 30
0.0
  3
*D8
  1

  0
LINE
  5
421
330
420
100
AcDbEntity
  8
Bemaßungen_TC_020513_DIN_
  6
Continuous
 62
     7
100
AcDbLine
 10
140.8904764229182
 20
154.6799068629231
 30
0.0
 11
308.3904764229181
 21
154.6799068629231
 31
0.0
  0
LINE
  5
422
330
420
100
AcDbEntity
  8
Bemaßungen_TC_020513_DIN_
  6
Continuous
 62
     7
100
AcDbLine
 10
140.8904764229182
 20
187.5807785564843
 30
0.0
 11
140.8904764229182
 21
150.6799068629231
 31
0.0
  0
LINE
  5
423
330
420
100
AcDbEntity
  8
Bemaßungen_TC_020513_DIN_
  6
Continuous
 62
     7
100
AcDbLine
 10
308.3904764229181
 20
187.5807785564843
 30
0.0
 11
308.3904764229181
 21
150.6799068629231
 31
0.0
  0
SOLID
  5
424
330
420
100
AcDbEntity
  8
Bemaßungen_TC_020513_DIN_
 62
     7
100
AcDbTrace
 10
145.8904764229182
 20
155.3381693508601
 30
0.0
 11
145.8904764229182
 21
154.0216443749861
 31
0.0
 12
140.8904764229182
 22
154.6799068629231
 32
0.0
 13
140.8904764229182
 23
154.6799068629231
 33
0.0
  0
SOLID
  5
425
330
420
100
AcDbEntity
  8
Bemaßungen_TC_020513_DIN_
 62
     7
100
AcDbTrace
 10
303.3904764229181
 20
154.0216443749861
 30
0.0
 11
303.3904764229181
 21
155.3381693508601
 31
0.0
 12
308.3904764229181
 22
154.6799068629231
 32
0.0
 13
308.3904764229181
 23
154.6799068629231
 33
0.0
  0
MTEXT
  5
426
330
420
100
AcDbEntity
  8
Bemaßungen_TC_020513_DIN_
 62
     7
100
AcDbMText
 10
213.8698097562514
 20
156.5943347236196
 30
0.0
 40
7.0
 41
0.0
 71
     7
 72
     1
  1
167,5
  7
CONVERTER_11
 11
0.9999999999970619
 21
2.424068405545306E-6
 31
0.0
 73
     1
 44
0.60024009603842
  0
ENDBLK
  5
428
330
420
100
AcDbEntity
  8
0
100
AcDbBlockEnd
  0
BLOCK
  5
432
330
42B
100
AcDbEntity
  8
0
100
AcDbBlockBegin
  2
*D9
 70
     1
 10
0.0
 20
0.0
 30
0.0
  3
*D9
  1

  0
LINE
  5
42C
330
42B
100
AcDbEntity
  8
Bemaßungen_TC_020513_DIN_
  6
Continuous
 62
     7
100
AcDbLine
 10
299.3904764229181
 20
276.9334517525771
 30
0.0
 11
149.8904764229182
 21
276.9334517525771
 31
0.0
  0
LINE
  5
42D
330
42B
100
AcDbEntity
  8
Bemaßungen_TC_020513_DIN_
  6
Continuous
 62
     7
100
AcDbLine
 10
149.890476422918
 20
221.445842065945
 30
0.0
 11
149.890476422918
 21
280.9334517525771
 31
0.0
  0
LINE
  5
42E
330
42B
100
AcDbEntity
  8
Bemaßungen_TC_020513_DIN_
  6
Continuous
 62
     7
100
AcDbLine
 10
299.390476422918
 20
221.445842065945
 30
0.0
 11
299.390476422918
 21
280.9334517525771
 31
0.0
  0
SOLID
  5
42F
330
42B
100
AcDbEntity
  8
Bemaßungen_TC_020513_DIN_
 62
     7
100
AcDbTrace
 10
294.3904764229181
 20
276.2751892646401
 30
0.0
 11
294.3904764229181
 21
277.591714240514
 31
0.0
 12
299.3904764229181
 22
276.9334517525771
 32
0.0
 13
299.3904764229181
 23
276.9334517525771
 33
0.0
  0
SOLID
  5
430
330
42B
100
AcDbEntity
  8
Bemaßungen_TC_020513_DIN_
 62
     7
100
AcDbTrace
 10
154.8904764229182
 20
277.591714240514
 30
0.0
 11
154.8904764229182
 21
276.2751892646401
 31
0.0
 12
149.8904764229182
 22
276.9334517525771
 32
0.0
 13
149.8904764229182
 23
276.9334517525771
 33
0.0
  0
MTEXT
  5
431
330
42B
100
AcDbEntity
  8
Bemaßungen_TC_020513_DIN_
 62
     7
100
AcDbMText
 10
213.8698097562514
 20
278.8478796132736
 30
0.0
 40
7.0
 41
0.0
 71
     7
 72
     1
  1
149,5
  7
CONVERTER_11
 11
0.9999999999970619
 21
2.424068405545306E-6
 31
0.0
 73
     1
 44
0.60024009603842
  0
ENDBLK
  5
433
330
42B
100
AcDbEntity
  8
0
100
AcDbBlockEnd
  0
BLOCK
  5
43D
330
436
100
AcDbEntity
  8
0
100
AcDbBlockBegin
  2
*D10
 70
     1
 10
0.0
 20
0.0
 30
0.0
  3
*D10
  1

  0
LINE
  5
437
330
436
100
AcDbEntity
  8
Bemaßungen_TC_020513_DIN_
  6
Continuous
 62
     7
100
AcDbLine
 10
537.018408574621
 20
229.7807785564844
 30
0.0
 11
537.018408574621
 21
189.5807785564844
 31
0.0
  0
LINE
  5
438
330
436
100
AcDbEntity
  8
Bemaßungen_TC_020513_DIN_
  6
Continuous
 62
     7
100
AcDbLine
 10
422.135000494635
 20
229.7807785564844
 30
0.0
 11
541.018408574621
 21
229.7807785564844
 31
0.0
  0
LINE
  5
439
330
436
100
AcDbEntity
  8
Bemaßungen_TC_020513_DIN_
  6
Continuous
 62
     7
100
AcDbLine
 10
447.1577120572082
 20
189.5807785564844
 30
0.0
 11
541.018408574621
 21
189.5807785564844
 31
0.0
  0
SOLID
  5
43A
330
436
100
AcDbEntity
  8
Bemaßungen_TC_020513_DIN_
 62
     7
100
AcDbTrace
 10
537.6766710625581
 20
224.7807785564844
 30
0.0
 11
536.360146086684
 21
224.7807785564844
 31
0.0
 12
537.018408574621
 22
229.7807785564844
 32
0.0
 13
537.018408574621
 23
229.7807785564844
 33
0.0
  0
SOLID
  5
43B
330
436
100
AcDbEntity
  8
Bemaßungen_TC_020513_DIN_
 62
     7
100
AcDbTrace
 10
536.360146086684
 20
194.5807785564844
 30
0.0
 11
537.6766710625581
 21
194.5807785564844
 31
0.0
 12
537.018408574621
 22
189.5807785564844
 32
0.0
 13
537.018408574621
 23
189.5807785564844
 33
0.0
  0
MTEXT
  5
43C
330
436
100
AcDbEntity
  8
Bemaßungen_TC_020513_DIN_
 62
     7
100
AcDbMText
 10
530.5050388611148
 20
207.3536589566664
 30
0.0
 40
7.0
 41
0.0
 71
     7
 72
     1
  1
42
  7
CONVERTER_11
 11
0.0
 21
1.0
 31
0.0
 73
     1
 44
0.60024009603842
  0
ENDBLK
  5
43E
330
436
100
AcDbEntity
  8
0
100
AcDbBlockEnd
  0
BLOCK
  5
448
330
441
100
AcDbEntity
  8
0
100
AcDbBlockBegin
  2
*D11
 70
     1
 10
0.0
 20
0.0
 30
0.0
  3
*D11
  1

  0
LINE
  5
442
330
441
100
AcDbEntity
  8
Bemaßungen_TC_020513_DIN_
  6
Continuous
 62
     7
100
AcDbLine
 10
136.9559476184687
 20
271.0721336901284
 30
0.0
 11
77.75594761846871
 21
271.0721336901284
 31
0.0
  0
LINE
  5
443
330
441
100
AcDbEntity
  8
Bemaßungen_TC_020513_DIN_
  6
Continuous
 62
     7
100
AcDbLine
 10
136.9559476184687
 20
307.3721336901283
 30
0.0
 11
136.9559476184687
 21
267.0721336901284
 31
0.0
  0
LINE
  5
444
330
441
100
AcDbEntity
  8
Bemaßungen_TC_020513_DIN_
  6
Continuous
 62
     7
100
AcDbLine
 10
77.75594761846871
 20
307.3721336901283
 30
0.0
 11
77.75594761846871
 21
267.0721336901284
 31
0.0
  0
SOLID
  5
445
330
441
100
AcDbEntity
  8
Bemaßungen_TC_020513_DIN_
 62
     7
100
AcDbTrace
 10
82.75594761846871
 20
271.7303961780653
 30
0.0
 11
82.75594761846871
 21
270.4138712021914
 31
0.0
 12
77.75594761846871
 22
271.0721336901284
 32
0.0
 13
77.75594761846871
 23
271.0721336901284
 33
0.0
  0
SOLID
  5
446
330
441
100
AcDbEntity
  8
Bemaßungen_TC_020513_DIN_
 62
     7
100
AcDbTrace
 10
131.9559476184687
 20
270.4138712021914
 30
0.0
 11
131.9559476184687
 21
271.7303961780653
 31
0.0
 12
136.9559476184687
 22
271.0721336901284
 32
0.0
 13
136.9559476184687
 23
271.0721336901284
 33
0.0
  0
MTEXT
  5
447
330
441
100
AcDbEntity
  8
Bemaßungen_TC_020513_DIN_
 62
     7
100
AcDbMText
 10
99.945306417923
 20
276.320155518232
 30
0.0
 40
7.0
 41
0.0
 71
     7
 72
     1
  1
148
  7
CONVERTER_11
 11
0.9999999999970619
 21
2.424068405545306E-6
 31
0.0
 73
     1
 44
0.60024009603842
  0
ENDBLK
  5
449
330
441
100
AcDbEntity
  8
0
100
AcDbBlockEnd
  0
BLOCK
  5
453
330
44C
100
AcDbEntity
  8
0
100
AcDbBlockBegin
  2
*D12
 70
     1
 10
0.0
 20
0.0
 30
0.0
  3
*D12
  1

  0
LINE
  5
44D
330
44C
100
AcDbEntity
  8
Bemaßungen_TC_020513_DIN_
  6
Continuous
 62
     7
100
AcDbLine
 10
132.3559476184687
 20
287.1721336901282
 30
0.0
 11
82.3559476184688
 21
287.1721336901282
 31
0.0
  0
LINE
  5
44E
330
44C
100
AcDbEntity
  8
Bemaßungen_TC_020513_DIN_
  6
Continuous
 62
     7
100
AcDbLine
 10
132.3559476184687
 20
305.1721336901284
 30
0.0
 11
132.3559476184687
 21
283.1721336901283
 31
0.0
  0
LINE
  5
44F
330
44C
100
AcDbEntity
  8
Bemaßungen_TC_020513_DIN_
  6
Continuous
 62
     7
100
AcDbLine
 10
82.3559476184688
 20
305.1721336901284
 30
0.0
 11
82.3559476184688
 21
283.1721336901283
 31
0.0
  0
SOLID
  5
450
330
44C
100
AcDbEntity
  8
Bemaßungen_TC_020513_DIN_
 62
     7
100
AcDbTrace
 10
87.3559476184688
 20
287.8303961780652
 30
0.0
 11
87.3559476184688
 21
286.5138712021913
 31
0.0
 12
82.3559476184688
 22
287.1721336901282
 32
0.0
 13
82.3559476184688
 23
287.1721336901282
 33
0.0
  0
SOLID
  5
451
330
44C
100
AcDbEntity
  8
Bemaßungen_TC_020513_DIN_
 62
     7
100
AcDbTrace
 10
127.3559476184687
 20
286.5138712021913
 30
0.0
 11
127.3559476184687
 21
287.8303961780652
 31
0.0
 12
132.3559476184687
 22
287.1721336901282
 32
0.0
 13
132.3559476184687
 23
287.1721336901282
 33
0.0
  0
MTEXT
  5
452
330
44C
100
AcDbEntity
  8
Bemaßungen_TC_020513_DIN_
 62
     7
100
AcDbMText
 10
99.9262068272
 20
292.420155518232
 30
0.0
 40
7.0
 41
0.0
 71
     7
 72
     1
  1
125
  7
CONVERTER_11
 11
0.9999999999970619
 21
2.424068405545306E-6
 31
0.0
 73
     1
 44
0.60024009603842
  0
ENDBLK
  5
454
330
44C
100
AcDbEntity
  8
0
100
AcDbBlockEnd
  0
BLOCK
  5
45E
330
457
100
AcDbEntity
  8
0
100
AcDbBlockBegin
  2
*D13
 70
     1
 10
0.0
 20
0.0
 30
0.0
  3
*D13
  1

  0
LINE
  5
458
330
457
100
AcDbEntity
  8
Bemaßungen_TC_020513_DIN_
  6
Continuous
 62
     7
100
AcDbLine
 10
34.82250327536594
 20
307.1721336901289
 30
0.0
 11
34.82250327536594
 21
339.5721336901288
 31
0.0
  0
LINE
  5
459
330
457
100
AcDbEntity
  8
Bemaßungen_TC_020513_DIN_
  6
Continuous
 62
     7
100
AcDbLine
 10
80.355947618469
 20
307.1721336901289
 30
0.0
 11
30.82250327536594
 21
307.1721336901289
 31
0.0
  0
LINE
  5
45A
330
457
100
AcDbEntity
  8
Bemaßungen_TC_020513_DIN_
  6
Continuous
 62
     7
100
AcDbLine
 10
80.355947618469
 20
339.5721336901288
 30
0.0
 11
30.82250327536594
 21
339.5721336901288
 31
0.0
  0
SOLID
  5
45B
330
457
100
AcDbEntity
  8
Bemaßungen_TC_020513_DIN_
 62
     7
100
AcDbTrace
 10
35.48076576330292
 20
334.5721336901288
 30
0.0
 11
34.16424078742896
 21
334.5721336901288
 31
0.0
 12
34.82250327536594
 22
339.5721336901288
 32
0.0
 13
34.82250327536594
 23
339.5721336901288
 33
0.0
  0
SOLID
  5
45C
330
457
100
AcDbEntity
  8
Bemaßungen_TC_020513_DIN_
 62
     7
100
AcDbTrace
 10
34.16424078742896
 20
312.1721336901289
 30
0.0
 11
35.48076576330292
 21
312.1721336901289
 31
0.0
 12
34.82250327536594
 22
307.1721336901289
 32
0.0
 13
34.82250327536594
 23
307.1721336901289
 33
0.0
  0
MTEXT
  5
45D
330
457
100
AcDbEntity
  8
Bemaßungen_TC_020513_DIN_
 62
     7
100
AcDbMText
 10
29.5744814472622
 20
319.029364249474
 30
0.0
 40
7.0
 41
0.0
 71
     7
 72
     1
  1
81
  7
CONVERTER_11
 11
0.0
 21
1.0
 31
0.0
 73
     1
 44
0.60024009603842
  0
ENDBLK
  5
45F
330
457
100
AcDbEntity
  8
0
100
AcDbBlockEnd
  0
BLOCK
  5
469
330
462
100
AcDbEntity
  8
0
100
AcDbBlockBegin
  2
*D14
 70
     1
 10
0.0
 20
0.0
 30
0.0
  3
*D14
  1

  0
LINE
  5
463
330
462
100
AcDbEntity
  8
Bemaßungen_TC_020513_DIN_
  6
Continuous
 62
     7
100
AcDbLine
 10
51.45594761846903
 20
309.3721336901287
 30
0.0
 11
51.45594761846903
 21
337.3721336901288
 31
0.0
  0
LINE
  5
464
330
462
100
AcDbEntity
  8
Bemaßungen_TC_020513_DIN_
  6
Continuous
 62
     7
100
AcDbLine
 10
75.75594761846901
 20
309.3721336901287
 30
0.0
 11
47.45594761846903
 21
309.3721336901287
 31
0.0
  0
LINE
  5
465
330
462
100
AcDbEntity
  8
Bemaßungen_TC_020513_DIN_
  6
Continuous
 62
     7
100
AcDbLine
 10
75.75594761846901
 20
337.3721336901288
 30
0.0
 11
47.45594761846903
 21
337.3721336901288
 31
0.0
  0
SOLID
  5
466
330
462
100
AcDbEntity
  8
Bemaßungen_TC_020513_DIN_
 62
     7
100
AcDbTrace
 10
52.11421010640601
 20
332.3721336901288
 30
0.0
 11
50.79768513053205
 21
332.3721336901288
 31
0.0
 12
51.45594761846903
 22
337.3721336901288
 32
0.0
 13
51.45594761846903
 23
337.3721336901288
 33
0.0
  0
SOLID
  5
467
330
462
100
AcDbEntity
  8
Bemaßungen_TC_020513_DIN_
 62
     7
100
AcDbTrace
 10
50.79768513053205
 20
314.3721336901287
 30
0.0
 11
52.11421010640601
 21
314.3721336901287
 31
0.0
 12
51.45594761846903
 22
309.3721336901287
 32
0.0
 13
51.45594761846903
 23
309.3721336901287
 33
0.0
  0
MTEXT
  5
468
330
462
100
AcDbEntity
  8
Bemaßungen_TC_020513_DIN_
 62
     7
100
AcDbMText
 10
46.2079257903653
 20
318.399077755613
 30
0.0
 40
7.0
 41
0.0
 71
     7
 72
     1
  1
70
  7
CONVERTER_11
 11
0.0
 21
1.0
 31
0.0
 73
     1
 44
0.60024009603842
  0
ENDBLK
  5
46A
330
462
100
AcDbEntity
  8
0
100
AcDbBlockEnd
  0
BLOCK
  5
474
330
46D
100
AcDbEntity
  8
0
100
AcDbBlockBegin
  2
*D15
 70
     1
 10
0.0
 20
0.0
 30
0.0
  3
*D15
  1

  0
LINE
  5
46E
330
46D
100
AcDbEntity
  8
Bemaßungen_TC_020513_DIN_
  6
Continuous
 62
     7
100
AcDbLine
 10
504.6603065636251
 20
276.714953768706
 30
0.0
 11
351.6577120572201
 21
276.714953768706
 31
0.0
  0
LINE
  5
46F
330
46D
100
AcDbEntity
  8
Bemaßungen_TC_020513_DIN_
  6
Continuous
 62
     7
100
AcDbLine
 10
504.6603065636251
 20
219.280778556484
 30
0.0
 11
504.6603065636251
 21
280.714953768706
 31
0.0
  0
LINE
  5
470
330
46D
100
AcDbEntity
  8
Bemaßungen_TC_020513_DIN_
  6
Continuous
 62
     7
100
AcDbLine
 10
351.6577120572201
 20
234.0807785564839
 30
0.0
 11
351.6577120572201
 21
280.714953768706
 31
0.0
  0
SOLID
  5
471
330
46D
100
AcDbEntity
  8
Bemaßungen_TC_020513_DIN_
 62
     7
100
AcDbTrace
 10
499.6603065636251
 20
276.0566912807691
 30
0.0
 11
499.6603065636251
 21
277.373216256643
 31
0.0
 12
504.6603065636251
 22
276.714953768706
 32
0.0
 13
504.6603065636251
 23
276.714953768706
 33
0.0
  0
SOLID
  5
472
330
46D
100
AcDbEntity
  8
Bemaßungen_TC_020513_DIN_
 62
     7
100
AcDbTrace
 10
356.6577120572201
 20
277.373216256643
 30
0.0
 11
356.6577120572201
 21
276.0566912807691
 31
0.0
 12
351.6577120572201
 22
276.714953768706
 32
0.0
 13
351.6577120572201
 23
276.714953768706
 33
0.0
  0
MTEXT
  5
473
330
46D
100
AcDbEntity
  8
Bemaßungen_TC_020513_DIN_
 62
     7
100
AcDbMText
 10
421.0656759770893
 20
277.5846055099996
 30
0.0
 40
7.0
 41
0.0
 71
     7
 72
     1
  1
153
  7
CONVERTER_11
 11
0.9999999999970619
 21
2.424068405545306E-6
 31
0.0
 73
     1
 44
0.60024009603842
  0
ENDBLK
  5
475
330
46D
100
AcDbEntity
  8
0
100
AcDbBlockEnd
  0
BLOCK
  5
481
330
478
100
AcDbEntity
  8
0
100
AcDbBlockBegin
  2
*D16
 70
     1
 10
0.0
 20
0.0
 30
0.0
  3
*D16
  1

  0
LINE
  5
479
330
478
100
AcDbEntity
  8
1
  6
Continuous
 62
     7
100
AcDbLine
 10
330.086456415861
 20
154.679906862923
 30
0.0
 11
351.65771205722
 21
154.679906862923
 31
0.0
  0
LINE
  5
47A
330
478
100
AcDbEntity
  8
1
  6
Continuous
 62
     7
100
AcDbLine
 10
351.65771205722
 20
154.679906862923
 30
0.0
 11
364.1577120572119
 21
154.679906862923
 31
0.0
  0
LINE
  5
47B
330
478
100
AcDbEntity
  8
1
  6
Continuous
 62
     7
100
AcDbLine
 10
364.1577120572119
 20
154.679906862923
 30
0.0
 11
374.1577120572119
 21
154.679906862923
 31
0.0
  0
LINE
  5
47C
330
478
100
AcDbEntity
  8
1
  6
Continuous
 62
     7
100
AcDbLine
 10
351.65771205722
 20
217.580778556484
 30
0.0
 11
351.65771205722
 21
150.679906862923
 31
0.0
  0
LINE
  5
47D
330
478
100
AcDbEntity
  8
1
  6
Continuous
 62
     7
100
AcDbLine
 10
364.1577120572119
 20
187.580778556484
 30
0.0
 11
364.1577120572119
 21
150.679906862923
 31
0.0
  0
SOLID
  5
47E
330
478
100
AcDbEntity
  8
1
 62
     7
100
AcDbTrace
 10
346.65771205722
 20
154.0216443749861
 30
0.0
 11
346.65771205722
 21
155.33816935086
 31
0.0
 12
351.65771205722
 22
154.679906862923
 32
0.0
 13
351.65771205722
 23
154.679906862923
 33
0.0
  0
SOLID
  5
47F
330
478
100
AcDbEntity
  8
1
 62
     7
100
AcDbTrace
 10
369.1577120572119
 20
155.33816935086
 30
0.0
 11
369.1577120572119
 21
154.0216443749861
 31
0.0
 12
364.1577120572119
 22
154.679906862923
 32
0.0
 13
364.1577120572119
 23
154.679906862923
 33
0.0
  0
MTEXT
  5
480
330
478
100
AcDbEntity
  8
1
 62
     7
100
AcDbMText
 10
330.086456415861
 20
155.5495586042166
 30
0.0
 40
7.0
 41
0.0
 71
     7
 72
     1
  1
12.5
  7
CONVERTER_11
 11
0.9999999999970619
 21
2.424068405545306E-6
 31
0.0
 73
     1
 44
0.60024009603842
  0
ENDBLK
  5
482
330
478
100
AcDbEntity
  8
0
100
AcDbBlockEnd
  0
ENDSEC
  0
SECTION
  2
ENTITIES
  0
INSERT
  5
5C
330
1F
100
AcDbEntity
  8
Bemaßungen_TC_020513_DIN_
100
AcDbBlockReference
  2
_D15
 10
0.0
 20
0.0
 30
0.0
  0
INSERT
  5
5D
330
1F
100
AcDbEntity
  8
0
100
AcDbBlockReference
  2
Schriftfelder_Ilme
 10
174.039620099394
 20
-0.0012801852525
 30
0.0
 41
2.0
 42
2.0
 43
2.0
  0
INSERT
  5
5E
330
1F
100
AcDbEntity
  8
0
100
AcDbBlockReference
  2
Ränder_Ilme_Rahmen_A4_quer
 10
0.0
 20
0.0
 30
0.0
 41
2.0
 42
2.0
 43
2.0
  0
POINT
  5
DA
330
1F
100
AcDbEntity
  8
Bemaßungen_TC_020513_DIN_
 62
     7
100
AcDbPoint
 10
364.157712057212
 20
189.580778556484
 30
0.0
  0
POINT
  5
DB
330
1F
100
AcDbEntity
  8
Bemaßungen_TC_020513_DIN_
 62
     7
100
AcDbPoint
 10
445.157712057208
 20
189.580778556484
 30
0.0
  0
POINT
  5
DC
330
1F
100
AcDbEntity
  8
Bemaßungen_TC_020513_DIN_
 62
     7
100
AcDbPoint
 10
423.157712057212
 20
253.280778556484
 30
0.0
  0
POINT
  5
DD
330
1F
100
AcDbEntity
  8
Bemaßungen_TC_020513_DIN_
 62
     7
100
AcDbPoint
 10
292.390476422918
 20
202.080778556484
 30
0.0
  0
POINT
  5
DE
330
1F
100
AcDbEntity
  8
Bemaßungen_TC_020513_DIN_
 62
     7
100
AcDbPoint
 10
156.890476422918
 20
202.080778556484
 30
0.0
  0
POINT
  5
DF
330
1F
100
AcDbEntity
  8
Bemaßungen_TC_020513_DIN_
 62
     7
100
AcDbPoint
 10
457.157712057211
 20
193.080778556484
 30
0.0
  0
POINT
  5
E0
330
1F
100
AcDbEntity
  8
Bemaßungen_TC_020513_DIN_
 62
     7
100
AcDbPoint
 10
364.157712057212
 20
189.580778556484
 30
0.0
  0
POINT
  5
E1
330
1F
100
AcDbEntity
  8
Bemaßungen_TC_020513_DIN_
 62
     7
100
AcDbPoint
 10
450.15771205721
 20
201.080778556484
 30
0.0
  0
POINT
  5
E2
330
1F
100
AcDbEntity
  8
Bemaßungen_TC_020513_DIN_
 62
     7
100
AcDbPoint
 10
445.157712057208
 20
189.580778556484
 30
0.0
  0
POINT
  5
E3
330
1F
100
AcDbEntity
  8
Bemaßungen_TC_020513_DIN_
 62
     7
100
AcDbPoint
 10
308.390476422918
 20
189.580778556484
 30
0.0
  0
POINT
  5
E4
330
1F
100
AcDbEntity
  8
Bemaßungen_TC_020513_DIN_
 62
     7
100
AcDbPoint
 10
140.890476422918
 20
189.580778556484
 30
0.0
  0
POINT
  5
E5
330
1F
100
AcDbEntity
  8
Bemaßungen_TC_020513_DIN_
 62
     7
100
AcDbPoint
 10
149.890476422918
 20
219.445842065945
 30
0.0
  0
POINT
  5
E6
330
1F
100
AcDbEntity
  8
Bemaßungen_TC_020513_DIN_
 62
     7
100
AcDbPoint
 10
299.390476422918
 20
219.445842065945
 30
0.0
  0
POINT
  5
E7
330
1F
100
AcDbEntity
  8
Bemaßungen_TC_020513_DIN_
 62
     7
100
AcDbPoint
 10
445.157712057208
 20
189.580778556484
 30
0.0
  0
POINT
  5
E8
330
1F
100
AcDbEntity
  8
Bemaßungen_TC_020513_DIN_
 62
     7
100
AcDbPoint
 10
420.135000494635
 20
229.780778556484
 30
0.0
  0
POINT
  5
E9
330
1F
100
AcDbEntity
  8
Bemaßungen_TC_020513_DIN_
 62
     7
100
AcDbPoint
 10
136.955947618469
 20
309.372133690129
 30
0.0
  0
POINT
  5
EA
330
1F
100
AcDbEntity
  8
Bemaßungen_TC_020513_DIN_
 62
     7
100
AcDbPoint
 10
77.7559476184689
 20
309.372133690129
 30
0.0
  0
POINT
  5
EB
330
1F
100
AcDbEntity
  8
Bemaßungen_TC_020513_DIN_
 62
     7
100
AcDbPoint
 10
132.355947618469
 20
307.172133690129
 30
0.0
  0
POINT
  5
EC
330
1F
100
AcDbEntity
  8
Bemaßungen_TC_020513_DIN_
 62
     7
100
AcDbPoint
 10
82.3559476184689
 20
307.172133690129
 30
0.0
  0
POINT
  5
ED
330
1F
100
AcDbEntity
  8
Bemaßungen_TC_020513_DIN_
 62
     7
100
AcDbPoint
 10
82.3559476184689
 20
307.172133690129
 30
0.0
  0
POINT
  5
EE
330
1F
100
AcDbEntity
  8
Bemaßungen_TC_020513_DIN_
 62
     7
100
AcDbPoint
 10
82.3559476184689
 20
339.572133690129
 30
0.0
  0
POINT
  5
EF
330
1F
100
AcDbEntity
  8
Bemaßungen_TC_020513_DIN_
 62
     7
100
AcDbPoint
 10
77.7559476184689
 20
309.372133690129
 30
0.0
  0
POINT
  5
F0
330
1F
100
AcDbEntity
  8
Bemaßungen_TC_020513_DIN_
 62
     7
100
AcDbPoint
 10
77.7559476184689
 20
337.372133690129
 30
0.0
  0
POINT
  5
F1
330
1F
100
AcDbEntity
  8
Bemaßungen_TC_020513_DIN_
 62
     7
100
AcDbPoint
 10
504.660306563625
 20
217.2807785564841
 30
0.0
  0
LWPOLYLINE
  5
F2
330
1F
100
AcDbEntity
  8
Sichtbare_Kanten_TC_020513_DIN_
  6
Continuous
 62
     7
100
AcDbPolyline
 90
        2
 70
     0
 43
0.5
 10
154.140476422918
 20
216.102172709657
 10
154.140476422918
 20
253.17975804205
  0
LWPOLYLINE
  5
2A3
330
1F
100
AcDbEntity
  8
Mittellinie_TC_020513_DIN_
  6
CHAIN
 62
     7
100
AcDbPolyline
 90
        2
 70
     0
 43
0.25
 10
137.355947618469
 20
323.372133690129
 10
77.3559476184689
 20
323.372133690129
  0
LWPOLYLINE
  5
2A4
330
1F
100
AcDbEntity
  8
Mittellinie_TC_020513_DIN_
  6
CHAIN
 62
     7
100
AcDbPolyline
 90
        2
 70
     0
 43
0.25
 10
107.355947618469
 20
344.572133690129
 10
107.355947618469
 20
302.172133690129
  0
LWPOLYLINE
  5
2A5
330
1F
100
AcDbEntity
  8
Mittelpunktmarkierung_TC_020513_DIN_
  6
CHAIN
 62
     7
100
AcDbPolyline
 90
        2
 70
     0
 43
0.25
 10
410.657712057215
 20
224.780778556484
 10
410.657712057215
 20
209.780778556484
  0
LWPOLYLINE
  5
2A6
330
1F
100
AcDbEntity
  8
Mittelpunktmarkierung_TC_020513_DIN_
  6
CHAIN
 62
     7
100
AcDbPolyline
 90
        2
 70
     0
 43
0.25
 10
418.157712057215
 20
217.280778556484
 10
403.157712057215
 20
217.280778556484
  0
LWPOLYLINE
  5
2A7
330
1F
100
AcDbEntity
  8
Mittellinie_TC_020513_DIN_
  6
CHAIN
 62
     7
100
AcDbPolyline
 90
        2
 70
     0
 43
0.25
 10
298.640476422918
 20
206.080778556484
 10
298.640476422918
 20
185.799324092859
  0
LWPOLYLINE
  5
2A8
330
1F
100
AcDbEntity
  8
Mittellinie_TC_020513_DIN_
  6
CHAIN
 62
     7
100
AcDbPolyline
 90
        2
 70
     0
 43
0.25
 10
150.640476422918
 20
206.080778556484
 10
150.640476422918
 20
186.397919597813
  0
LWPOLYLINE
  5
2A9
330
1F
100
AcDbEntity
  8
Mittellinie_TC_020513_DIN_
  6
CHAIN
 62
     7
100
AcDbPolyline
 90
        2
 70
     0
 43
0.25
 10
224.640476422918
 20
181.189759240863
 10
224.640476422918
 20
255.745590347077
  0
LWPOLYLINE
  5
2AA
330
1F
100
AcDbEntity
  8
Mittellinie_TC_020513_DIN_
  6
CHAIN
 62
     7
100
AcDbPolyline
 90
        2
 70
     0
 43
0.25
 10
161.890476422918
 20
217.280778556484
 10
147.890476422918
 20
217.280778556484
  0
LWPOLYLINE
  5
2AB
330
1F
100
AcDbEntity
  8
Mittellinie_TC_020513_DIN_
  6
CHAIN
 62
     7
100
AcDbPolyline
 90
        2
 70
     0
 43
0.25
 10
301.390476422918
 20
217.280778556484
 10
287.390476422918
 20
217.280778556484
  0
LWPOLYLINE
  5
2AC
330
1F
100
AcDbEntity
  8
Mittellinie_TC_020513_DIN_
  6
CHAIN
 62
     7
100
AcDbPolyline
 90
        2
 70
     0
 43
0.25
 10
445.657712057211
 20
206.080778556484
 10
445.657712057211
 20
185.599792257875
  0
LWPOLYLINE
  5
2AD
330
1F
100
AcDbEntity
  8
Mittellinie_TC_020513_DIN_
  6
CHAIN
 62
     7
100
AcDbPolyline
 90
        2
 70
     0
 43
0.25
 10
375.657712057211
 20
206.080778556484
 10
375.657712057211
 20
185.799324092859
  0
LWPOLYLINE
  5
2AE
330
1F
100
AcDbEntity
  8
Mittelpunktmarkierung_TC_020513_DIN_
  6
CHAIN
 62
     7
100
AcDbPolyline
 90
        2
 70
     0
 43
0.25
 10
77.7559476184689
 20
315.672133690129
 10
77.7559476184689
 20
303.072133690129
  0
LWPOLYLINE
  5
2AF
330
1F
100
AcDbEntity
  8
Mittelpunktmarkierung_TC_020513_DIN_
  6
CHAIN
 62
     7
100
AcDbPolyline
 90
        2
 70
     0
 43
0.25
 10
84.0559476184689
 20
309.372133690129
 10
71.4559476184689
 20
309.372133690129
  0
LWPOLYLINE
  5
2B0
330
1F
100
AcDbEntity
  8
Mittelpunktmarkierung_TC_020513_DIN_
  6
CHAIN
 62
     7
100
AcDbPolyline
 90
        2
 70
     0
 43
0.25
 10
136.955947618469
 20
315.672133690129
 10
136.955947618469
 20
303.072133690129
  0
LWPOLYLINE
  5
2B1
330
1F
100
AcDbEntity
  8
Mittelpunktmarkierung_TC_020513_DIN_
  6
CHAIN
 62
     7
100
AcDbPolyline
 90
        2
 70
     0
 43
0.25
 10
143.255947618469
 20
309.372133690129
 10
130.655947618469
 20
309.372133690129
  0
LWPOLYLINE
  5
2B2
330
1F
100
AcDbEntity
  8
Mittelpunktmarkierung_TC_020513_DIN_
  6
CHAIN
 62
     7
100
AcDbPolyline
 90
        2
 70
     0
 43
0.25
 10
136.955947618469
 20
343.672133690129
 10
136.955947618469
 20
331.072133690129
  0
LWPOLYLINE
  5
2B3
330
1F
100
AcDbEntity
  8
Mittelpunktmarkierung_TC_020513_DIN_
  6
CHAIN
 62
     7
100
AcDbPolyline
 90
        2
 70
     0
 43
0.25
 10
143.255947618469
 20
337.372133690129
 10
130.655947618469
 20
337.372133690129
  0
LWPOLYLINE
  5
2B4
330
1F
100
AcDbEntity
  8
Mittelpunktmarkierung_TC_020513_DIN_
  6
CHAIN
 62
     7
100
AcDbPolyline
 90
        2
 70
     0
 43
0.25
 10
77.7559476184689
 20
343.672133690129
 10
77.7559476184689
 20
331.072133690129
  0
LWPOLYLINE
  5
2B5
330
1F
100
AcDbEntity
  8
Mittelpunktmarkierung_TC_020513_DIN_
  6
CHAIN
 62
     7
100
AcDbPolyline
 90
        2
 70
     0
 43
0.25
 10
84.0559476184689
 20
337.372133690129
 10
71.4559476184689
 20
337.372133690129
  0
LWPOLYLINE
  5
2B6
330
1F
100
AcDbEntity
  8
Skizziergeometrie_TC_020513_DIN_
  6
Continuous
 62
     7
100
AcDbPolyline
 90
        2
 70
     0
 43
0.5
 10
82.3559476184689
 20
339.572133690129
 10
82.3559476184689
 20
307.172133690129
  0
LWPOLYLINE
  5
2B7
330
1F
100
AcDbEntity
  8
Skizziergeometrie_TC_020513_DIN_
  6
Continuous
 62
     7
100
AcDbPolyline
 90
        2
 70
     0
 43
0.5
 10
132.355947618469
 20
339.572133690129
 10
82.3559476184689
 20
339.572133690129
  0
LWPOLYLINE
  5
2B8
330
1F
100
AcDbEntity
  8
Skizziergeometrie_TC_020513_DIN_
  6
Continuous
 62
     7
100
AcDbPolyline
 90
        2
 70
     0
 43
0.5
 10
132.355947618469
 20
307.172133690129
 10
132.355947618469
 20
339.572133690129
  0
LWPOLYLINE
  5
2B9
330
1F
100
AcDbEntity
  8
Skizziergeometrie_TC_020513_DIN_
  6
Continuous
 62
     7
100
AcDbPolyline
 90
        2
 70
     0
 43
0.5
 10
82.3559476184689
 20
307.172133690129
 10
132.355947618469
 20
307.172133690129
  0
LWPOLYLINE
  5
2BA
330
1F
100
AcDbEntity
  8
Sichtbare_Kanten_TC_020513_DIN_
  6
Continuous
 62
     7
100
AcDbPolyline
 90
        2
 70
     0
 43
0.5
 10
475.46579217116
 20
213.302304417654
 10
480.165792171171
 20
205.16166562208
  0
LWPOLYLINE
  5
2BB
330
1F
100
AcDbEntity
  8
Sichtbare_Kanten_TC_020513_DIN_
  6
Continuous
 62
     7
100
AcDbPolyline
 90
        2
 70
     0
 43
0.5
 10
480.165792171171
 20
205.16166562208
 10
464.577334903043
 20
196.16166562208
  0
LWPOLYLINE
  5
2BC
330
1F
100
AcDbEntity
  8
Sichtbare_Kanten_TC_020513_DIN_
  6
Continuous
 62
     7
100
AcDbPolyline
 90
        2
 70
     0
 43
0.5
 10
464.577334903043
 20
196.16166562208
 10
459.87733490304
 20
204.302304417654
  0
LWPOLYLINE
  5
2BD
330
1F
100
AcDbEntity
  8
Sichtbare_Kanten_TC_020513_DIN_
  6
Continuous
 62
     7
100
AcDbPolyline
 90
        2
 70
     0
 43
0.5
 10
483.368936905683
 20
207.011002096803
 10
483.067532397587
 20
207.533050018455
  0
LWPOLYLINE
  5
2BE
330
1F
100
AcDbEntity
  8
Sichtbare_Kanten_TC_020513_DIN_
  6
Continuous
 62
     7
100
AcDbPolyline
 90
        2
 70
     0
 43
0.5
 10
483.067532397587
 20
207.533050018455
 10
482.668936905682
 20
208.223437662101
  0
LWPOLYLINE
  5
2BF
330
1F
100
AcDbEntity
  8
Sichtbare_Kanten_TC_020513_DIN_
  6
Continuous
 62
     7
100
AcDbPolyline
 90
        2
 70
     0
 43
0.5
 10
458.157712057212
 20
207.280778556484
 10
459.87733490304
 20
204.302304417654
  0
LWPOLYLINE
  5
2C0
330
1F
100
AcDbEntity
  8
Sichtbare_Kanten_TC_020513_DIN_
  6
Continuous
 62
     7
100
AcDbPolyline
 90
        2
 70
     0
 43
0.5
 10
405.657712057212
 20
207.280778556484
 10
458.157712057212
 20
207.280778556484
  0
LWPOLYLINE
  5
2C1
330
1F
100
AcDbEntity
  8
Sichtbare_Kanten_TC_020513_DIN_
  6
Continuous
 62
     7
100
AcDbPolyline
 90
        2
 70
     0
 43
0.5
 10
400.657712057212
 20
237.280778556484
 10
400.657712057212
 20
212.280778556484
  0
LWPOLYLINE
  5
2C2
330
1F
100
AcDbEntity
  8
Sichtbare_Kanten_TC_020513_DIN_
  6
Continuous
 62
     7
100
AcDbPolyline
 90
        2
 70
     0
 43
0.5
 10
425.293338313979
 20
224.488760816734
 10
413.818646415293
 20
236.26082290586
  0
LWPOLYLINE
  5
2C3
330
1F
100
AcDbEntity
  8
Sichtbare_Kanten_TC_020513_DIN_
  6
Continuous
 62
     7
100
AcDbPolyline
 90
        2
 70
     0
 43
0.5
 10
473.849287459076
 20
216.102172709657
 10
424.157712057212
 20
253.17975804205
  0
LWPOLYLINE
  5
2C4
330
1F
100
AcDbEntity
  8
Sichtbare_Kanten_TC_020513_DIN_
  6
Continuous
 62
     7
100
AcDbPolyline
 90
        2
 70
     0
 43
0.5
 10
475.46579217116
 20
213.302304417654
 10
473.849287459076
 20
216.102172709657
  0
LWPOLYLINE
  5
2C5
330
1F
100
AcDbEntity
  8
Sichtbare_Kanten_TC_020513_DIN_
  6
Continuous
 62
     7
100
AcDbPolyline
 90
        2
 70
     0
 43
0.5
 10
483.368936905683
 20
207.011002096803
 10
480.165792171171
 20
205.16166562208
  0
LWPOLYLINE
  5
2C6
330
1F
100
AcDbEntity
  8
Sichtbare_Kanten_TC_020513_DIN_
  6
Continuous
 62
     7
100
AcDbPolyline
 90
        2
 70
     0
 43
0.5
 10
482.668936905682
 20
208.223437662101
 10
479.465792171171
 20
206.374101187378
  0
LWPOLYLINE
  5
2C7
330
1F
100
AcDbEntity
  8
Sichtbare_Kanten_TC_020513_DIN_
  6
Continuous
 62
     7
100
AcDbPolyline
 90
        2
 70
     0
 43
0.5
 10
498.164606488833
 20
204.704101187378
 10
503.360758911541
 20
201.704101187378
  0
LWPOLYLINE
  5
2C8
330
1F
100
AcDbEntity
  8
Sichtbare_Kanten_TC_020513_DIN_
  6
Continuous
 62
     7
100
AcDbPolyline
 90
        2
 70
     0
 43
0.5
 10
498.164606488833
 20
204.704101187378
 10
492.068936905683
 20
208.223437662101
  0
LWPOLYLINE
  5
2C9
330
1F
100
AcDbEntity
  8
Sichtbare_Kanten_TC_020513_DIN_
  6
Continuous
 62
     7
100
AcDbPolyline
 90
        2
 70
     0
 43
0.5
 10
503.360758911541
 20
201.704101187378
 10
502.660758911541
 20
200.49166562208
  0
LWPOLYLINE
  5
2CA
330
1F
100
AcDbEntity
  8
Sichtbare_Kanten_TC_020513_DIN_
  6
Continuous
 62
     7
100
AcDbPolyline
 90
        2
 70
     0
 43
0.5
 10
497.464606488833
 20
203.49166562208
 10
491.368936905683
 20
207.011002096803
  0
LWPOLYLINE
  5
2CB
330
1F
100
AcDbEntity
  8
Sichtbare_Kanten_TC_020513_DIN_
  6
Continuous
 62
     7
100
AcDbPolyline
 90
        2
 70
     0
 43
0.5
 10
497.464606488833
 20
203.49166562208
 10
502.660758911541
 20
200.49166562208
  0
LWPOLYLINE
  5
2CC
330
1F
100
AcDbEntity
  8
Sichtbare_Kanten_TC_020513_DIN_
  6
Continuous
 62
     7
100
AcDbPolyline
 90
        2
 70
     0
 43
0.5
 10
445.157712057208
 20
189.580778556484
 10
457.157712057212
 20
189.580778556484
  0
LWPOLYLINE
  5
2CD
330
1F
100
AcDbEntity
  8
Sichtbare_Kanten_TC_020513_DIN_
  6
Continuous
 62
     7
100
AcDbPolyline
 90
        2
 70
     0
 43
0.5
 10
457.157712057212
 20
189.580778556484
 10
457.157712057211
 20
193.080778556484
  0
LWPOLYLINE
  5
2CE
330
1F
100
AcDbEntity
  8
Sichtbare_Kanten_TC_020513_DIN_
  6
Continuous
 62
     7
100
AcDbPolyline
 90
        2
 70
     0
 43
0.5
 10
364.157712057212
 20
189.580778556484
 10
376.157712057208
 20
189.580778556484
  0
LWPOLYLINE
  5
2CF
330
1F
100
AcDbEntity
  8
Sichtbare_Kanten_TC_020513_DIN_
  6
Continuous
 62
     7
100
AcDbPolyline
 90
        2
 70
     0
 43
0.5
 10
364.157712057212
 20
189.580778556484
 10
364.157712057212
 20
193.080778556484
  0
LWPOLYLINE
  5
2D0
330
1F
100
AcDbEntity
  8
Sichtbare_Kanten_TC_020513_DIN_
  6
Continuous
 62
     7
100
AcDbPolyline
 90
        2
 70
     0
 43
0.5
 10
445.157712057208
 20
189.580778556484
 10
376.157712057208
 20
189.580778556484
  0
LWPOLYLINE
  5
2D1
330
1F
100
AcDbEntity
  8
Sichtbare_Kanten_TC_020513_DIN_
  6
Continuous
 62
     7
100
AcDbPolyline
 90
        2
 70
     0
 43
0.5
 10
445.157712057208
 20
193.080778556484
 10
457.157712057211
 20
193.080778556484
  0
LWPOLYLINE
  5
2D2
330
1F
100
AcDbEntity
  8
Sichtbare_Kanten_TC_020513_DIN_
  6
Continuous
 62
     7
100
AcDbPolyline
 90
        2
 70
     0
 43
0.5
 10
445.157712057208
 20
193.080778556484
 10
376.157712057208
 20
193.080778556484
  0
LWPOLYLINE
  5
2D3
330
1F
100
AcDbEntity
  8
Sichtbare_Kanten_TC_020513_DIN_
  6
Continuous
 62
     7
100
AcDbPolyline
 90
        2
 70
     0
 43
0.5
 10
364.157712057212
 20
193.080778556484
 10
376.157712057208
 20
193.080778556484
  0
LWPOLYLINE
  5
2D4
330
1F
100
AcDbEntity
  8
Sichtbare_Kanten_TC_020513_DIN_
  6
Continuous
 62
     7
100
AcDbPolyline
 90
        2
 70
     0
 43
0.5
 10
385.657712057209
 20
199.580778556484
 10
385.657712057209
 20
200.080778556484
  0
LWPOLYLINE
  5
2D5
330
1F
100
AcDbEntity
  8
Sichtbare_Kanten_TC_020513_DIN_
  6
Continuous
 62
     7
100
AcDbPolyline
 90
        2
 70
     0
 43
0.5
 10
435.657712057209
 20
200.080778556484
 10
435.657712057209
 20
199.580778556484
  0
LWPOLYLINE
  5
2D6
330
1F
100
AcDbEntity
  8
Sichtbare_Kanten_TC_020513_DIN_
  6
Continuous
 62
     7
100
AcDbPolyline
 90
        2
 70
     0
 43
0.5
 10
456.257712057218
 20
229.780778556484
 10
455.517147765071
 20
229.780778556484
  0
LWPOLYLINE
  5
2D7
330
1F
100
AcDbEntity
  8
Sichtbare_Kanten_TC_020513_DIN_
  6
Continuous
 62
     7
100
AcDbPolyline
 90
        2
 70
     0
 43
0.5
 10
456.257712057218
 20
229.780778556484
 10
456.257712057218
 20
229.228203285645
  0
LWPOLYLINE
  5
2D8
330
1F
100
AcDbEntity
  8
Sichtbare_Kanten_TC_020513_DIN_
  6
Continuous
 62
     7
100
AcDbPolyline
 90
        2
 70
     0
 43
0.5
 10
420.135000494635
 20
229.780778556484
 10
431.280211056412
 20
229.780778556484
  0
LWPOLYLINE
  5
2D9
330
1F
100
AcDbEntity
  8
Sichtbare_Kanten_TC_020513_DIN_
  6
Continuous
 62
     7
100
AcDbPolyline
 90
        2
 70
     0
 43
0.5
 10
381.157712057213
 20
229.780778556484
 10
400.657712057213
 20
229.780778556484
  0
LWPOLYLINE
  5
2DA
330
1F
100
AcDbEntity
  8
Sichtbare_Kanten_TC_020513_DIN_
  6
Continuous
 62
     7
100
AcDbPolyline
 90
        2
 70
     0
 43
0.5
 10
365.057712057217
 20
229.780778556484
 10
365.057712057217
 20
224.280778556484
  0
LWPOLYLINE
  5
2DB
330
1F
100
AcDbEntity
  8
Sichtbare_Kanten_TC_020513_DIN_
  6
Continuous
 62
     7
100
AcDbPolyline
 90
        2
 70
     0
 43
0.5
 10
381.157712057213
 20
229.780778556484
 10
365.057712057217
 20
229.780778556484
  0
LWPOLYLINE
  5
2DC
330
1F
100
AcDbEntity
  8
Sichtbare_Kanten_TC_020513_DIN_
  6
Continuous
 62
     7
100
AcDbPolyline
 90
        2
 70
     0
 43
0.5
 10
381.157712057213
 20
224.280778556484
 10
365.057712057217
 20
224.280778556484
  0
LWPOLYLINE
  5
2DD
330
1F
100
AcDbEntity
  8
Sichtbare_Kanten_TC_020513_DIN_
  6
Continuous
 62
     7
100
AcDbPolyline
 90
        2
 70
     0
 43
0.5
 10
425.511960746148
 20
224.280778556484
 10
430.803463368277
 20
224.280778556484
  0
LWPOLYLINE
  5
2DE
330
1F
100
AcDbEntity
  8
Sichtbare_Kanten_TC_020513_DIN_
  6
Continuous
 62
     7
100
AcDbPolyline
 90
        2
 70
     0
 43
0.5
 10
381.157712057213
 20
224.280778556484
 10
400.657712057213
 20
224.280778556484
  0
LWPOLYLINE
  5
2DF
330
1F
100
AcDbEntity
  8
Sichtbare_Kanten_TC_020513_DIN_
  6
Continuous
 62
     7
100
AcDbPolyline
 90
        2
 70
     0
 43
0.5
 10
365.157710149869
 20
202.080778556484
 10
365.157710149866
 20
200.080778079647
  0
LWPOLYLINE
  5
2E0
330
1F
100
AcDbEntity
  8
Sichtbare_Kanten_TC_020513_DIN_
  6
Continuous
 62
     7
100
AcDbPolyline
 90
        2
 70
     0
 43
0.5
 10
435.193610442071
 20
198.580778556484
 10
386.121813672352
 20
198.580778556484
  0
LWPOLYLINE
  5
2E1
330
1F
100
AcDbEntity
  8
Sichtbare_Kanten_TC_020513_DIN_
  6
Continuous
 62
     7
100
AcDbPolyline
 90
        2
 70
     0
 43
0.5
 10
445.157712057209
 20
201.080778556484
 10
455.157712057211
 20
201.080778556484
  0
LWPOLYLINE
  5
2E2
330
1F
100
AcDbEntity
  8
Sichtbare_Kanten_TC_020513_DIN_
  6
Continuous
 62
     7
100
AcDbPolyline
 90
        2
 70
     0
 43
0.5
 10
445.157712057209
 20
201.080778556484
 10
438.657712057209
 20
201.080778556484
  0
LWPOLYLINE
  5
2E3
330
1F
100
AcDbEntity
  8
Sichtbare_Kanten_TC_020513_DIN_
  6
Continuous
 62
     7
100
AcDbPolyline
 90
        2
 70
     0
 43
0.5
 10
436.657712057209
 20
201.080778556484
 10
438.657712057209
 20
201.080778556484
  0
LWPOLYLINE
  5
2E4
330
1F
100
AcDbEntity
  8
Sichtbare_Kanten_TC_020513_DIN_
  6
Continuous
 62
     7
100
AcDbPolyline
 90
        2
 70
     0
 43
0.5
 10
382.657712057209
 20
201.080778556484
 10
384.657712057209
 20
201.080778556484
  0
LWPOLYLINE
  5
2E5
330
1F
100
AcDbEntity
  8
Sichtbare_Kanten_TC_020513_DIN_
  6
Continuous
 62
     7
100
AcDbPolyline
 90
        2
 70
     0
 43
0.5
 10
382.657712057209
 20
201.080778556484
 10
376.157712057209
 20
201.080778556484
  0
LWPOLYLINE
  5
2E6
330
1F
100
AcDbEntity
  8
Sichtbare_Kanten_TC_020513_DIN_
  6
Continuous
 62
     7
100
AcDbPolyline
 90
        2
 70
     0
 43
0.5
 10
366.157712057212
 20
201.080778556484
 10
376.157712057209
 20
201.080778556484
  0
LWPOLYLINE
  5
2E7
330
1F
100
AcDbEntity
  8
Sichtbare_Kanten_TC_020513_DIN_
  6
Continuous
 62
     7
100
AcDbPolyline
 90
        2
 70
     0
 43
0.5
 10
456.157713964564
 20
200.080778079647
 10
456.157713964566
 20
202.080778556484
  0
LWPOLYLINE
  5
2E8
330
1F
100
AcDbEntity
  8
Sichtbare_Kanten_TC_020513_DIN_
  6
Continuous
 62
     7
100
AcDbPolyline
 90
        2
 70
     0
 43
0.5
 10
365.157712057218
 20
202.080778556484
 10
365.157712057218
 20
224.280778556484
  0
LWPOLYLINE
  5
2E9
330
1F
100
AcDbEntity
  8
Sichtbare_Kanten_TC_020513_DIN_
  6
Continuous
 62
     7
100
AcDbPolyline
 90
        2
 70
     0
 43
0.5
 10
456.157712057218
 20
202.080778556484
 10
456.157712057218
 20
207.280778556484
  0
LWPOLYLINE
  5
2EA
330
1F
100
AcDbEntity
  8
Sichtbare_Kanten_TC_020513_DIN_
  6
Continuous
 62
     7
100
AcDbPolyline
 90
        2
 70
     0
 43
0.5
 10
410.698672611244
 20
223.030633407253
 10
413.157712057211
 20
221.610905604976
  0
LWPOLYLINE
  5
2EB
330
1F
100
AcDbEntity
  8
Sichtbare_Kanten_TC_020513_DIN_
  6
Continuous
 62
     7
100
AcDbPolyline
 90
        2
 70
     0
 43
0.5
 10
408.157712057211
 20
221.610905604976
 10
410.616751503177
 20
223.030633407253
  0
LWPOLYLINE
  5
2EC
330
1F
100
AcDbEntity
  8
Sichtbare_Kanten_TC_020513_DIN_
  6
Continuous
 62
     7
100
AcDbPolyline
 90
        2
 70
     0
 43
0.5
 10
405.657712057211
 20
217.280778365749
 10
405.657712057211
 20
220.120231586117
  0
LWPOLYLINE
  5
2ED
330
1F
100
AcDbEntity
  8
Sichtbare_Kanten_TC_020513_DIN_
  6
Continuous
 62
     7
100
AcDbPolyline
 90
        2
 70
     0
 43
0.5
 10
405.698672667124
 20
220.1911778027
 10
408.157712057211
 20
221.610905604976
  0
LWPOLYLINE
  5
2EE
330
1F
100
AcDbEntity
  8
Sichtbare_Kanten_TC_020513_DIN_
  6
Continuous
 62
     7
100
AcDbPolyline
 90
        2
 70
     0
 43
0.5
 10
408.157712057211
 20
212.950651126522
 10
405.698672667124
 20
214.370378928798
  0
LWPOLYLINE
  5
2EF
330
1F
100
AcDbEntity
  8
Sichtbare_Kanten_TC_020513_DIN_
  6
Continuous
 62
     7
100
AcDbPolyline
 90
        2
 70
     0
 43
0.5
 10
405.657712057211
 20
214.441325145382
 10
405.657712057211
 20
217.280778365749
  0
LWPOLYLINE
  5
2F0
330
1F
100
AcDbEntity
  8
Sichtbare_Kanten_TC_020513_DIN_
  6
Continuous
 62
     7
100
AcDbPolyline
 90
        2
 70
     0
 43
0.5
 10
413.157712057211
 20
212.950651126522
 10
410.698672611244
 20
211.530923324245
  0
LWPOLYLINE
  5
2F1
330
1F
100
AcDbEntity
  8
Sichtbare_Kanten_TC_020513_DIN_
  6
Continuous
 62
     7
100
AcDbPolyline
 90
        2
 70
     0
 43
0.5
 10
410.616751503177
 20
211.530923324245
 10
408.157712057211
 20
212.950651126522
  0
LWPOLYLINE
  5
2F2
330
1F
100
AcDbEntity
  8
Sichtbare_Kanten_TC_020513_DIN_
  6
Continuous
 62
     7
100
AcDbPolyline
 90
        2
 70
     0
 43
0.5
 10
415.657712057211
 20
217.280778365749
 10
415.657712057211
 20
214.441325145382
  0
LWPOLYLINE
  5
2F3
330
1F
100
AcDbEntity
  8
Sichtbare_Kanten_TC_020513_DIN_
  6
Continuous
 62
     7
100
AcDbPolyline
 90
        2
 70
     0
 43
0.5
 10
415.616751447298
 20
214.370378928798
 10
413.157712057211
 20
212.950651126522
  0
LWPOLYLINE
  5
2F4
330
1F
100
AcDbEntity
  8
Sichtbare_Kanten_TC_020513_DIN_
  6
Continuous
 62
     7
100
AcDbPolyline
 90
        2
 70
     0
 43
0.5
 10
415.657712057211
 20
220.120231586117
 10
415.657712057211
 20
217.280778365749
  0
LWPOLYLINE
  5
2F5
330
1F
100
AcDbEntity
  8
Sichtbare_Kanten_TC_020513_DIN_
  6
Continuous
 62
     7
100
AcDbPolyline
 90
        2
 70
     0
 43
0.5
 10
413.157712057211
 20
221.610905604976
 10
415.616751447298
 20
220.1911778027
  0
LWPOLYLINE
  5
2F6
330
1F
100
AcDbEntity
  8
Sichtbare_Kanten_TC_020513_DIN_
  6
Continuous
 62
     7
100
AcDbPolyline
 90
        2
 70
     0
 43
0.5
 10
365.157712057212
 20
193.080778556484
 10
365.157712057211
 20
200.080778556484
  0
LWPOLYLINE
  5
2F7
330
1F
100
AcDbEntity
  8
Sichtbare_Kanten_TC_020513_DIN_
  6
Continuous
 62
     7
100
AcDbPolyline
 90
        2
 70
     0
 43
0.5
 10
456.157712057212
 20
193.080778556484
 10
456.157712057212
 20
200.080778556484
  0
LWPOLYLINE
  5
2F8
330
1F
100
AcDbEntity
  8
Sichtbare_Kanten_TC_020513_DIN_
  6
Continuous
 62
     7
100
AcDbPolyline
 90
        2
 70
     0
 43
0.5
 10
154.140476422918
 20
204.302304417654
 10
154.140476422918
 20
213.302304417654
  0
LWPOLYLINE
  5
2F9
330
1F
100
AcDbEntity
  8
Sichtbare_Kanten_TC_020513_DIN_
  6
Continuous
 62
     7
100
AcDbPolyline
 90
        2
 70
     0
 43
0.5
 10
154.140476422918
 20
253.280778556484
 10
155.540476422918
 20
253.280778556484
  0
LWPOLYLINE
  5
2FA
330
1F
100
AcDbEntity
  8
Sichtbare_Kanten_TC_020513_DIN_
  6
Continuous
 62
     7
100
AcDbPolyline
 90
        2
 70
     0
 43
0.5
 10
191.640152517087
 20
205.16166562208
 10
163.540476422918
 20
205.16166562208
  0
LWPOLYLINE
  5
2FB
330
1F
100
AcDbEntity
  8
Sichtbare_Kanten_TC_020513_DIN_
  6
Continuous
 62
     7
100
AcDbPolyline
 90
        2
 70
     0
 43
0.5
 10
155.540476422918
 20
253.17975804205
 10
154.140476422918
 20
253.17975804205
  0
LWPOLYLINE
  5
2FC
330
1F
100
AcDbEntity
  8
Sichtbare_Kanten_TC_020513_DIN_
  6
Continuous
 62
     7
100
AcDbPolyline
 90
        2
 70
     0
 43
0.5
 10
155.540476422918
 20
216.102172709657
 10
154.140476422918
 20
216.102172709657
  0
LWPOLYLINE
  5
2FD
330
1F
100
AcDbEntity
  8
Sichtbare_Kanten_TC_020513_DIN_
  6
Continuous
 62
     7
100
AcDbPolyline
 90
        2
 70
     0
 43
0.5
 10
154.140476422918
 20
253.280778556484
 10
154.140476422918
 20
253.17975804205
  0
LWPOLYLINE
  5
2FE
330
1F
100
AcDbEntity
  8
Sichtbare_Kanten_TC_020513_DIN_
  6
Continuous
 62
     7
100
AcDbPolyline
 90
        2
 70
     0
 43
0.5
 10
154.140476422918
 20
213.302304417654
 10
154.140476422918
 20
216.102172709657
  0
LWPOLYLINE
  5
2FF
330
1F
100
AcDbEntity
  8
Sichtbare_Kanten_TC_020513_DIN_
  6
Continuous
 62
     7
100
AcDbPolyline
 90
        2
 70
     0
 43
0.5
 10
155.540476422918
 20
213.302304417654
 10
155.540476422918
 20
216.102172709657
  0
LWPOLYLINE
  5
300
330
1F
100
AcDbEntity
  8
Sichtbare_Kanten_TC_020513_DIN_
  6
Continuous
 62
     7
100
AcDbPolyline
 90
        2
 70
     0
 43
0.5
 10
155.540476422918
 20
216.102172709657
 10
155.540476422918
 20
253.17975804205
  0
LWPOLYLINE
  5
301
330
1F
100
AcDbEntity
  8
Sichtbare_Kanten_TC_020513_DIN_
  6
Continuous
 62
     7
100
AcDbPolyline
 90
        2
 70
     0
 43
0.5
 10
155.540476422918
 20
253.280778556484
 10
155.540476422918
 20
253.17975804205
  0
LWPOLYLINE
  5
302
330
1F
100
AcDbEntity
  8
Sichtbare_Kanten_TC_020513_DIN_
  6
Continuous
 62
     7
100
AcDbPolyline
 90
        2
 70
     0
 43
0.5
 10
191.640152517087
 20
206.374101187378
 10
163.540476422918
 20
206.374101187378
  0
LWPOLYLINE
  5
303
330
1F
100
AcDbEntity
  8
Sichtbare_Kanten_TC_020513_DIN_
  6
Continuous
 62
     7
100
AcDbPolyline
 90
        2
 70
     0
 43
0.5
 10
199.640152517086
 20
204.704101187378
 10
199.640152517086
 20
203.49166562208
  0
LWPOLYLINE
  5
304
330
1F
100
AcDbEntity
  8
Sichtbare_Kanten_TC_020513_DIN_
  6
Continuous
 62
     7
100
AcDbPolyline
 90
        2
 70
     0
 43
0.5
 10
199.640152517086
 20
208.223437662101
 10
199.640152517086
 20
209.482798866527
  0
LWPOLYLINE
  5
305
330
1F
100
AcDbEntity
  8
Sichtbare_Kanten_TC_020513_DIN_
  6
Continuous
 62
     7
100
AcDbPolyline
 90
        2
 70
     0
 43
0.5
 10
199.640152517086
 20
204.704101187378
 10
199.640152517086
 20
208.223437662101
  0
LWPOLYLINE
  5
306
330
1F
100
AcDbEntity
  8
Sichtbare_Kanten_TC_020513_DIN_
  6
Continuous
 62
     7
100
AcDbPolyline
 90
        2
 70
     0
 43
0.5
 10
198.385416455892
 20
207.011002096803
 10
198.385416455892
 20
207.533050018455
  0
LWPOLYLINE
  5
307
330
1F
100
AcDbEntity
  8
Sichtbare_Kanten_TC_020513_DIN_
  6
Continuous
 62
     7
100
AcDbPolyline
 90
        2
 70
     0
 43
0.5
 10
198.385416455892
 20
207.533050018455
 10
198.385416455892
 20
208.223437662101
  0
LWPOLYLINE
  5
308
330
1F
100
AcDbEntity
  8
Sichtbare_Kanten_TC_020513_DIN_
  6
Continuous
 62
     7
100
AcDbPolyline
 90
        2
 70
     0
 43
0.5
 10
295.140476422918
 20
213.302304417654
 10
295.140476422918
 20
204.302304417654
  0
LWPOLYLINE
  5
309
330
1F
100
AcDbEntity
  8
Sichtbare_Kanten_TC_020513_DIN_
  6
Continuous
 62
     7
100
AcDbPolyline
 90
        2
 70
     0
 43
0.5
 10
293.740476422918
 20
253.280778556484
 10
295.140476422918
 20
253.280778556484
  0
LWPOLYLINE
  5
30A
330
1F
100
AcDbEntity
  8
Sichtbare_Kanten_TC_020513_DIN_
  6
Continuous
 62
     7
100
AcDbPolyline
 90
        2
 70
     0
 43
0.5
 10
163.540476422918
 20
196.16166562208
 10
285.740476422918
 20
196.16166562208
  0
LWPOLYLINE
  5
30B
330
1F
100
AcDbEntity
  8
Sichtbare_Kanten_TC_020513_DIN_
  6
Continuous
 62
     7
100
AcDbPolyline
 90
        2
 70
     0
 43
0.5
 10
205.640152517086
 20
201.704101187378
 10
243.640800328751
 20
201.704101187378
  0
LWPOLYLINE
  5
30C
330
1F
100
AcDbEntity
  8
Sichtbare_Kanten_TC_020513_DIN_
  6
Continuous
 62
     7
100
AcDbPolyline
 90
        2
 70
     0
 43
0.5
 10
205.640152517086
 20
200.49166562208
 10
243.640800328751
 20
200.49166562208
  0
LWPOLYLINE
  5
30D
330
1F
100
AcDbEntity
  8
Sichtbare_Kanten_TC_020513_DIN_
  6
Continuous
 62
     7
100
AcDbPolyline
 90
        2
 70
     0
 43
0.5
 10
249.640800328751
 20
204.704101187378
 10
249.640800328751
 20
208.223437662101
  0
LWPOLYLINE
  5
30E
330
1F
100
AcDbEntity
  8
Sichtbare_Kanten_TC_020513_DIN_
  6
Continuous
 62
     7
100
AcDbPolyline
 90
        2
 70
     0
 43
0.5
 10
249.640800328751
 20
204.704101187378
 10
249.640800328751
 20
203.49166562208
  0
LWPOLYLINE
  5
30F
330
1F
100
AcDbEntity
  8
Sichtbare_Kanten_TC_020513_DIN_
  6
Continuous
 62
     7
100
AcDbPolyline
 90
        2
 70
     0
 43
0.5
 10
257.640800328749
 20
205.16166562208
 10
285.740476422918
 20
205.16166562208
  0
LWPOLYLINE
  5
310
330
1F
100
AcDbEntity
  8
Sichtbare_Kanten_TC_020513_DIN_
  6
Continuous
 62
     7
100
AcDbPolyline
 90
        2
 70
     0
 43
0.5
 10
257.640800328749
 20
206.374101187378
 10
285.740476422918
 20
206.374101187378
  0
LWPOLYLINE
  5
311
330
1F
100
AcDbEntity
  8
Sichtbare_Kanten_TC_020513_DIN_
  6
Continuous
 62
     7
100
AcDbPolyline
 90
        2
 70
     0
 43
0.5
 10
293.740476422918
 20
216.102172709657
 10
295.140476422918
 20
216.102172709657
  0
LWPOLYLINE
  5
312
330
1F
100
AcDbEntity
  8
Sichtbare_Kanten_TC_020513_DIN_
  6
Continuous
 62
     7
100
AcDbPolyline
 90
        2
 70
     0
 43
0.5
 10
293.740476422918
 20
253.17975804205
 10
295.140476422918
 20
253.17975804205
  0
LWPOLYLINE
  5
313
330
1F
100
AcDbEntity
  8
Sichtbare_Kanten_TC_020513_DIN_
  6
Continuous
 62
     7
100
AcDbPolyline
 90
        2
 70
     0
 43
0.5
 10
295.140476422918
 20
213.302304417654
 10
295.140476422918
 20
216.102172709657
  0
LWPOLYLINE
  5
314
330
1F
100
AcDbEntity
  8
Sichtbare_Kanten_TC_020513_DIN_
  6
Continuous
 62
     7
100
AcDbPolyline
 90
        2
 70
     0
 43
0.5
 10
295.140476422918
 20
216.102172709657
 10
295.140476422918
 20
253.17975804205
  0
LWPOLYLINE
  5
315
330
1F
100
AcDbEntity
  8
Sichtbare_Kanten_TC_020513_DIN_
  6
Continuous
 62
     7
100
AcDbPolyline
 90
        2
 70
     0
 43
0.5
 10
295.140476422918
 20
253.280778556484
 10
295.140476422918
 20
253.17975804205
  0
LWPOLYLINE
  5
316
330
1F
100
AcDbEntity
  8
Sichtbare_Kanten_TC_020513_DIN_
  6
Continuous
 62
     7
100
AcDbPolyline
 90
        2
 70
     0
 43
0.5
 10
293.740476422918
 20
253.280778556484
 10
293.740476422918
 20
253.17975804205
  0
LWPOLYLINE
  5
317
330
1F
100
AcDbEntity
  8
Sichtbare_Kanten_TC_020513_DIN_
  6
Continuous
 62
     7
100
AcDbPolyline
 90
        2
 70
     0
 43
0.5
 10
293.740476422918
 20
216.102172709657
 10
293.740476422918
 20
253.17975804205
  0
LWPOLYLINE
  5
318
330
1F
100
AcDbEntity
  8
Sichtbare_Kanten_TC_020513_DIN_
  6
Continuous
 62
     7
100
AcDbPolyline
 90
        2
 70
     0
 43
0.5
 10
293.740476422918
 20
213.302304417654
 10
293.740476422918
 20
216.102172709657
  0
LWPOLYLINE
  5
319
330
1F
100
AcDbEntity
  8
Sichtbare_Kanten_TC_020513_DIN_
  6
Continuous
 62
     7
100
AcDbPolyline
 90
        2
 70
     0
 43
0.5
 10
199.640152517086
 20
209.482798866527
 10
249.640800328751
 20
209.482798866527
  0
LWPOLYLINE
  5
31A
330
1F
100
AcDbEntity
  8
Sichtbare_Kanten_TC_020513_DIN_
  6
Continuous
 62
     7
100
AcDbPolyline
 90
        2
 70
     0
 43
0.5
 10
249.640800328751
 20
209.482798866527
 10
249.640800328751
 20
208.223437662101
  0
LWPOLYLINE
  5
31B
330
1F
100
AcDbEntity
  8
Sichtbare_Kanten_TC_020513_DIN_
  6
Continuous
 62
     7
100
AcDbPolyline
 90
        2
 70
     0
 43
0.5
 10
250.895536389944
 20
208.223437662101
 10
250.895536389944
 20
207.533050018454
  0
LWPOLYLINE
  5
31C
330
1F
100
AcDbEntity
  8
Sichtbare_Kanten_TC_020513_DIN_
  6
Continuous
 62
     7
100
AcDbPolyline
 90
        2
 70
     0
 43
0.5
 10
250.895536389944
 20
207.533050018454
 10
250.895536389944
 20
207.011002096803
  0
LWPOLYLINE
  5
31D
330
1F
100
AcDbEntity
  8
Sichtbare_Kanten_TC_020513_DIN_
  6
Continuous
 62
     7
100
AcDbPolyline
 90
        2
 70
     0
 43
0.5
 10
140.890476422918
 20
189.580778556484
 10
152.890476422918
 20
189.580778556484
  0
LWPOLYLINE
  5
31E
330
1F
100
AcDbEntity
  8
Sichtbare_Kanten_TC_020513_DIN_
  6
Continuous
 62
     7
100
AcDbPolyline
 90
        2
 70
     0
 43
0.5
 10
296.390476422918
 20
189.580778556484
 10
152.890476422918
 20
189.580778556484
  0
LWPOLYLINE
  5
31F
330
1F
100
AcDbEntity
  8
Sichtbare_Kanten_TC_020513_DIN_
  6
Continuous
 62
     7
100
AcDbPolyline
 90
        2
 70
     0
 43
0.5
 10
296.390476422918
 20
189.580778556484
 10
308.390476422918
 20
189.580778556484
  0
LWPOLYLINE
  5
320
330
1F
100
AcDbEntity
  8
Sichtbare_Kanten_TC_020513_DIN_
  6
Continuous
 62
     7
100
AcDbPolyline
 90
        2
 70
     0
 43
0.5
 10
308.390476422918
 20
189.580778556484
 10
308.390476422918
 20
193.080778556484
  0
LWPOLYLINE
  5
321
330
1F
100
AcDbEntity
  8
Sichtbare_Kanten_TC_020513_DIN_
  6
Continuous
 62
     7
100
AcDbPolyline
 90
        2
 70
     0
 43
0.5
 10
140.890476422918
 20
189.580778556484
 10
140.890476422918
 20
193.080778556484
  0
LWPOLYLINE
  5
322
330
1F
100
AcDbEntity
  8
Sichtbare_Kanten_TC_020513_DIN_
  6
Continuous
 62
     7
100
AcDbPolyline
 90
        2
 70
     0
 43
0.5
 10
296.390476422918
 20
193.080778556484
 10
308.390476422918
 20
193.080778556484
  0
LWPOLYLINE
  5
323
330
1F
100
AcDbEntity
  8
Sichtbare_Kanten_TC_020513_DIN_
  6
Continuous
 62
     7
100
AcDbPolyline
 90
        2
 70
     0
 43
0.5
 10
296.390476422918
 20
193.080778556484
 10
152.890476422918
 20
193.080778556484
  0
LWPOLYLINE
  5
324
330
1F
100
AcDbEntity
  8
Sichtbare_Kanten_TC_020513_DIN_
  6
Continuous
 62
     7
100
AcDbPolyline
 90
        2
 70
     0
 43
0.5
 10
140.890476422918
 20
193.080778556484
 10
152.890476422918
 20
193.080778556484
  0
LWPOLYLINE
  5
325
330
1F
100
AcDbEntity
  8
Sichtbare_Kanten_TC_020513_DIN_
  6
Continuous
 62
     7
100
AcDbPolyline
 90
        2
 70
     0
 43
0.5
 10
292.390476422918
 20
209.450924794714
 10
292.390476422918
 20
224.280778556484
  0
LWPOLYLINE
  5
326
330
1F
100
AcDbEntity
  8
Sichtbare_Kanten_TC_020513_DIN_
  6
Continuous
 62
     7
100
AcDbPolyline
 90
        2
 70
     0
 43
0.5
 10
156.890476422918
 20
209.450924794714
 10
156.890476422918
 20
224.280778556484
  0
LWPOLYLINE
  5
327
330
1F
100
AcDbEntity
  8
Sichtbare_Kanten_TC_020513_DIN_
  6
Continuous
 62
     7
100
AcDbPolyline
 90
        2
 70
     0
 43
0.5
 10
154.907842902313
 20
201.080778556484
 10
152.890476422918
 20
201.080778556484
  0
LWPOLYLINE
  5
328
330
1F
100
AcDbEntity
  8
Sichtbare_Kanten_TC_020513_DIN_
  6
Continuous
 62
     7
100
AcDbPolyline
 90
        2
 70
     0
 43
0.5
 10
142.890476422918
 20
201.080778556484
 10
152.890476422918
 20
201.080778556484
  0
LWPOLYLINE
  5
329
330
1F
100
AcDbEntity
  8
Sichtbare_Kanten_TC_020513_DIN_
  6
Continuous
 62
     7
100
AcDbPolyline
 90
        2
 70
     0
 43
0.5
 10
296.390476422918
 20
201.080778556484
 10
306.390476422918
 20
201.080778556484
  0
LWPOLYLINE
  5
32A
330
1F
100
AcDbEntity
  8
Sichtbare_Kanten_TC_020513_DIN_
  6
Continuous
 62
     7
100
AcDbPolyline
 90
        2
 70
     0
 43
0.5
 10
296.390476422918
 20
201.080778556484
 10
294.373109943524
 20
201.080778556484
  0
LWPOLYLINE
  5
32B
330
1F
100
AcDbEntity
  8
Sichtbare_Kanten_TC_020513_DIN_
  6
Continuous
 62
     7
100
AcDbPolyline
 90
        2
 70
     0
 43
0.5
 10
292.490476422918
 20
229.780778556484
 10
276.390476422918
 20
229.780778556484
  0
LWPOLYLINE
  5
32C
330
1F
100
AcDbEntity
  8
Sichtbare_Kanten_TC_020513_DIN_
  6
Continuous
 62
     7
100
AcDbPolyline
 90
        2
 70
     0
 43
0.5
 10
292.490476422918
 20
229.780778556484
 10
292.490476422918
 20
224.280778556484
  0
LWPOLYLINE
  5
32D
330
1F
100
AcDbEntity
  8
Sichtbare_Kanten_TC_020513_DIN_
  6
Continuous
 62
     7
100
AcDbPolyline
 90
        2
 70
     0
 43
0.5
 10
172.890476422918
 20
229.780778556484
 10
276.390476422918
 20
229.780778556484
  0
LWPOLYLINE
  5
32E
330
1F
100
AcDbEntity
  8
Sichtbare_Kanten_TC_020513_DIN_
  6
Continuous
 62
     7
100
AcDbPolyline
 90
        2
 70
     0
 43
0.5
 10
172.890476422918
 20
229.780778556484
 10
156.790476422918
 20
229.780778556484
  0
LWPOLYLINE
  5
32F
330
1F
100
AcDbEntity
  8
Sichtbare_Kanten_TC_020513_DIN_
  6
Continuous
 62
     7
100
AcDbPolyline
 90
        2
 70
     0
 43
0.5
 10
156.790476422918
 20
229.780778556484
 10
156.790476422918
 20
224.280778556484
  0
LWPOLYLINE
  5
330
330
1F
100
AcDbEntity
  8
Sichtbare_Kanten_TC_020513_DIN_
  6
Continuous
 62
     7
100
AcDbPolyline
 90
        2
 70
     0
 43
0.5
 10
172.890476422918
 20
224.280778556484
 10
156.790476422918
 20
224.280778556484
  0
LWPOLYLINE
  5
331
330
1F
100
AcDbEntity
  8
Sichtbare_Kanten_TC_020513_DIN_
  6
Continuous
 62
     7
100
AcDbPolyline
 90
        2
 70
     0
 43
0.5
 10
172.890476422918
 20
224.280778556484
 10
276.390476422918
 20
224.280778556484
  0
LWPOLYLINE
  5
332
330
1F
100
AcDbEntity
  8
Sichtbare_Kanten_TC_020513_DIN_
  6
Continuous
 62
     7
100
AcDbPolyline
 90
        2
 70
     0
 43
0.5
 10
292.490476422918
 20
224.280778556484
 10
276.390476422918
 20
224.280778556484
  0
LWPOLYLINE
  5
333
330
1F
100
AcDbEntity
  8
Sichtbare_Kanten_TC_020513_DIN_
  6
Continuous
 62
     7
100
AcDbPolyline
 90
        2
 70
     0
 43
0.5
 10
224.640476422918
 20
217.830778556484
 10
223.515476422918
 20
219.38435837017
  0
LWPOLYLINE
  5
334
330
1F
100
AcDbEntity
  8
Sichtbare_Kanten_TC_020513_DIN_
  6
Continuous
 62
     7
100
AcDbPolyline
 90
        2
 70
     0
 43
0.5
 10
223.515476422918
 20
219.38435837017
 10
223.515476422918
 20
215.393999510121
  0
LWPOLYLINE
  5
335
330
1F
100
AcDbEntity
  8
Sichtbare_Kanten_TC_020513_DIN_
  6
Continuous
 62
     7
100
AcDbPolyline
 90
        2
 70
     0
 43
0.5
 10
222.765476422918
 20
215.393999510121
 10
222.765476422918
 20
220.541596064386
  0
LWPOLYLINE
  5
336
330
1F
100
AcDbEntity
  8
Sichtbare_Kanten_TC_020513_DIN_
  6
Continuous
 62
     7
100
AcDbPolyline
 90
        2
 70
     0
 43
0.5
 10
223.444205282409
 20
220.761536465205
 10
224.640476422918
 20
219.109534069124
  0
LWPOLYLINE
  5
337
330
1F
100
AcDbEntity
  8
Sichtbare_Kanten_TC_020513_DIN_
  6
Continuous
 62
     7
100
AcDbPolyline
 90
        2
 70
     0
 43
0.5
 10
224.640476422918
 20
219.109534069124
 10
225.836747563428
 20
220.761536465205
  0
LWPOLYLINE
  5
338
330
1F
100
AcDbEntity
  8
Sichtbare_Kanten_TC_020513_DIN_
  6
Continuous
 62
     7
100
AcDbPolyline
 90
        2
 70
     0
 43
0.5
 10
226.515476422918
 20
220.541596064386
 10
226.515476422918
 20
213.619961048582
  0
LWPOLYLINE
  5
339
330
1F
100
AcDbEntity
  8
Sichtbare_Kanten_TC_020513_DIN_
  6
Continuous
 62
     7
100
AcDbPolyline
 90
        2
 70
     0
 43
0.5
 10
225.765476422918
 20
213.619961048582
 10
225.765476422918
 20
219.38435837017
  0
LWPOLYLINE
  5
33A
330
1F
100
AcDbEntity
  8
Sichtbare_Kanten_TC_020513_DIN_
  6
Continuous
 62
     7
100
AcDbPolyline
 90
        2
 70
     0
 43
0.5
 10
225.765476422918
 20
219.38435837017
 10
224.640476422918
 20
217.830778556484
  0
LWPOLYLINE
  5
33B
330
1F
100
AcDbEntity
  8
Sichtbare_Kanten_TC_020513_DIN_
  6
Continuous
 62
     7
100
AcDbPolyline
 90
        2
 70
     0
 43
0.5
 10
221.940476422918
 20
219.632942218232
 10
221.940476422918
 20
214.745201366461
  0
LWPOLYLINE
  5
33C
330
1F
100
AcDbEntity
  8
Sichtbare_Kanten_TC_020513_DIN_
  6
Continuous
 62
     7
100
AcDbPolyline
 90
        2
 70
     0
 43
0.5
 10
221.940476422918
 20
214.745201366461
 10
224.827872342977
 20
213.079396027966
  0
LWPOLYLINE
  5
33D
330
1F
100
AcDbEntity
  8
Sichtbare_Kanten_TC_020513_DIN_
  6
Continuous
 62
     7
100
AcDbPolyline
 90
        2
 70
     0
 43
0.5
 10
224.45308050286
 20
212.42975683843
 10
221.37808050286
 20
214.203795299968
  0
LWPOLYLINE
  5
33E
330
1F
100
AcDbEntity
  8
Sichtbare_Kanten_TC_020513_DIN_
  6
Continuous
 62
     7
100
AcDbPolyline
 90
        2
 70
     0
 43
0.5
 10
221.190476422918
 20
214.528614894736
 10
221.190476422918
 20
219.632942218232
  0
LWPOLYLINE
  5
33F
330
1F
100
AcDbEntity
  8
Sichtbare_Kanten_TC_020513_DIN_
  6
Continuous
 62
     7
100
AcDbPolyline
 90
        2
 70
     0
 43
0.5
 10
214.890476422918
 20
217.080778556484
 10
224.640476422918
 20
222.705778556484
  0
LWPOLYLINE
  5
340
330
1F
100
AcDbEntity
  8
Sichtbare_Kanten_TC_020513_DIN_
  6
Continuous
 62
     7
100
AcDbPolyline
 90
        2
 70
     0
 43
0.5
 10
224.640476422918
 20
222.705778556484
 10
234.390476422918
 20
217.080778556484
  0
LWPOLYLINE
  5
341
330
1F
100
AcDbEntity
  8
Sichtbare_Kanten_TC_020513_DIN_
  6
Continuous
 62
     7
100
AcDbPolyline
 90
        2
 70
     0
 43
0.5
 10
234.390476422918
 20
217.080778556484
 10
224.640476422918
 20
211.455778556484
  0
LWPOLYLINE
  5
342
330
1F
100
AcDbEntity
  8
Sichtbare_Kanten_TC_020513_DIN_
  6
Continuous
 62
     7
100
AcDbPolyline
 90
        2
 70
     0
 43
0.5
 10
224.640476422918
 20
211.455778556484
 10
214.890476422918
 20
217.080778556484
  0
LWPOLYLINE
  5
343
330
1F
100
AcDbEntity
  8
Sichtbare_Kanten_TC_020513_DIN_
  6
Continuous
 62
     7
100
AcDbPolyline
 90
        2
 70
     0
 43
0.5
 10
224.640476422918
 20
222.272845930913
 10
215.640892973909
 20
217.080778556484
  0
LWPOLYLINE
  5
344
330
1F
100
AcDbEntity
  8
Sichtbare_Kanten_TC_020513_DIN_
  6
Continuous
 62
     7
100
AcDbPolyline
 90
        2
 70
     0
 43
0.5
 10
233.640059871928
 20
217.080778556484
 10
224.640476422918
 20
222.272845930913
  0
LWPOLYLINE
  5
345
330
1F
100
AcDbEntity
  8
Sichtbare_Kanten_TC_020513_DIN_
  6
Continuous
 62
     7
100
AcDbPolyline
 90
        2
 70
     0
 43
0.5
 10
224.640476422918
 20
211.888711182055
 10
233.640059871928
 20
217.080778556484
  0
LWPOLYLINE
  5
346
330
1F
100
AcDbEntity
  8
Sichtbare_Kanten_TC_020513_DIN_
  6
Continuous
 62
     7
100
AcDbPolyline
 90
        2
 70
     0
 43
0.5
 10
215.640892973909
 20
217.080778556484
 10
224.640476422918
 20
211.888711182055
  0
LWPOLYLINE
  5
347
330
1F
100
AcDbEntity
  8
Sichtbare_Kanten_TC_020513_DIN_
  6
Continuous
 62
     7
100
AcDbPolyline
 90
        2
 70
     0
 43
0.5
 10
220.440476422918
 20
218.767557602847
 10
220.440476422918
 20
215.393999510121
  0
LWPOLYLINE
  5
348
330
1F
100
AcDbEntity
  8
Sichtbare_Kanten_TC_020513_DIN_
  6
Continuous
 62
     7
100
AcDbPolyline
 90
        2
 70
     0
 43
0.5
 10
219.690476422918
 20
215.393999510121
 10
219.690476422918
 20
218.767557602847
  0
LWPOLYLINE
  5
349
330
1F
100
AcDbEntity
  8
Sichtbare_Kanten_TC_020513_DIN_
  6
Continuous
 62
     7
100
AcDbPolyline
 90
        2
 70
     0
 43
0.5
 10
227.827872342977
 20
220.001031043769
 10
229.327872342977
 20
219.135646428385
  0
LWPOLYLINE
  5
34A
330
1F
100
AcDbEntity
  8
Sichtbare_Kanten_TC_020513_DIN_
  6
Continuous
 62
     7
100
AcDbPolyline
 90
        2
 70
     0
 43
0.5
 10
228.95308050286
 20
218.486007238848
 10
228.015476422918
 20
219.026932669584
  0
LWPOLYLINE
  5
34B
330
1F
100
AcDbEntity
  8
Sichtbare_Kanten_TC_020513_DIN_
  6
Continuous
 62
     7
100
AcDbPolyline
 90
        2
 70
     0
 43
0.5
 10
228.015476422918
 20
219.026932669584
 10
228.015476422918
 20
217.455778556484
  0
LWPOLYLINE
  5
34C
330
1F
100
AcDbEntity
  8
Sichtbare_Kanten_TC_020513_DIN_
  6
Continuous
 62
     7
100
AcDbPolyline
 90
        2
 70
     0
 43
0.5
 10
228.015476422918
 20
217.455778556484
 10
229.140476422918
 20
217.455778556484
  0
LWPOLYLINE
  5
34D
330
1F
100
AcDbEntity
  8
Sichtbare_Kanten_TC_020513_DIN_
  6
Continuous
 62
     7
100
AcDbPolyline
 90
        2
 70
     0
 43
0.5
 10
229.140476422918
 20
216.705778556484
 10
228.015476422918
 20
216.705778556484
  0
LWPOLYLINE
  5
34E
330
1F
100
AcDbEntity
  8
Sichtbare_Kanten_TC_020513_DIN_
  6
Continuous
 62
     7
100
AcDbPolyline
 90
        2
 70
     0
 43
0.5
 10
228.015476422918
 20
216.705778556484
 10
228.015476422918
 20
215.134624443384
  0
LWPOLYLINE
  5
34F
330
1F
100
AcDbEntity
  8
Sichtbare_Kanten_TC_020513_DIN_
  6
Continuous
 62
     7
100
AcDbPolyline
 90
        2
 70
     0
 43
0.5
 10
228.015476422918
 20
215.134624443384
 10
228.95308050286
 20
215.67554987412
  0
LWPOLYLINE
  5
350
330
1F
100
AcDbEntity
  8
Sichtbare_Kanten_TC_020513_DIN_
  6
Continuous
 62
     7
100
AcDbPolyline
 90
        2
 70
     0
 43
0.5
 10
229.327872342977
 20
215.025910684583
 10
227.827872342977
 20
214.160526069199
  0
LWPOLYLINE
  5
351
330
1F
100
AcDbEntity
  8
Sichtbare_Kanten_TC_020513_DIN_
  6
Continuous
 62
     7
100
AcDbPolyline
 90
        2
 70
     0
 43
0.5
 10
227.265476422918
 20
214.485345663967
 10
227.265476422918
 20
219.676211449001
  0
LWPOLYLINE
  5
352
330
1F
100
AcDbEntity
  8
Sichtbare_Kanten_TC_020513_DIN_
  6
Continuous
 62
     7
100
AcDbPolyline
 90
        2
 70
     0
 43
0.5
 10
293.740476422918
 20
221.180778556484
 10
292.390476422918
 20
221.180778556484
  0
LWPOLYLINE
  5
353
330
1F
100
AcDbEntity
  8
Sichtbare_Kanten_TC_020513_DIN_
  6
Continuous
 62
     7
100
AcDbPolyline
 90
        2
 70
     0
 43
0.5
 10
296.390476422918
 20
221.180778556484
 10
295.140476422918
 20
221.180778556484
  0
LWPOLYLINE
  5
354
330
1F
100
AcDbEntity
  8
Sichtbare_Kanten_TC_020513_DIN_
  6
Continuous
 62
     7
100
AcDbPolyline
 90
        2
 70
     0
 43
0.5
 10
293.740476422918
 20
213.380778556484
 10
292.390476422918
 20
213.380778556484
  0
LWPOLYLINE
  5
355
330
1F
100
AcDbEntity
  8
Sichtbare_Kanten_TC_020513_DIN_
  6
Continuous
 62
     7
100
AcDbPolyline
 90
        2
 70
     0
 43
0.5
 10
296.390476422918
 20
213.380778556484
 10
295.140476422918
 20
213.380778556484
  0
LWPOLYLINE
  5
356
330
1F
100
AcDbEntity
  8
Sichtbare_Kanten_TC_020513_DIN_
  6
Continuous
 62
     7
100
AcDbPolyline
 90
        2
 70
     0
 43
0.5
 10
298.957463721026
 20
211.530778556484
 10
296.390476422918
 20
211.530778556484
  0
LWPOLYLINE
  5
357
330
1F
100
AcDbEntity
  8
Sichtbare_Kanten_TC_020513_DIN_
  6
Continuous
 62
     7
100
AcDbPolyline
 90
        2
 70
     0
 43
0.5
 10
298.957463721026
 20
223.030778556484
 10
296.390476422918
 20
223.030778556484
  0
LWPOLYLINE
  5
358
330
1F
100
AcDbEntity
  8
Sichtbare_Kanten_TC_020513_DIN_
  6
Continuous
 62
     7
100
AcDbPolyline
 90
        2
 70
     0
 43
0.5
 10
154.140476422918
 20
221.180778556484
 10
152.890476422918
 20
221.180778556484
  0
LWPOLYLINE
  5
359
330
1F
100
AcDbEntity
  8
Sichtbare_Kanten_TC_020513_DIN_
  6
Continuous
 62
     7
100
AcDbPolyline
 90
        2
 70
     0
 43
0.5
 10
156.890476422918
 20
221.180778556484
 10
155.540476422918
 20
221.180778556484
  0
LWPOLYLINE
  5
35A
330
1F
100
AcDbEntity
  8
Sichtbare_Kanten_TC_020513_DIN_
  6
Continuous
 62
     7
100
AcDbPolyline
 90
        2
 70
     0
 43
0.5
 10
154.140476422918
 20
213.380778556484
 10
152.890476422918
 20
213.380778556484
  0
LWPOLYLINE
  5
35B
330
1F
100
AcDbEntity
  8
Sichtbare_Kanten_TC_020513_DIN_
  6
Continuous
 62
     7
100
AcDbPolyline
 90
        2
 70
     0
 43
0.5
 10
156.890476422918
 20
213.380778556484
 10
155.540476422918
 20
213.380778556484
  0
LWPOLYLINE
  5
35C
330
1F
100
AcDbEntity
  8
Sichtbare_Kanten_TC_020513_DIN_
  6
Continuous
 62
     7
100
AcDbPolyline
 90
        2
 70
     0
 43
0.5
 10
152.890476422918
 20
211.530778556484
 10
150.32348912481
 20
211.530778556484
  0
LWPOLYLINE
  5
35D
330
1F
100
AcDbEntity
  8
Sichtbare_Kanten_TC_020513_DIN_
  6
Continuous
 62
     7
100
AcDbPolyline
 90
        2
 70
     0
 43
0.5
 10
152.890476422918
 20
223.030778556484
 10
150.32348912481
 20
223.030778556484
  0
LWPOLYLINE
  5
35E
330
1F
100
AcDbEntity
  8
Sichtbare_Kanten_TC_020513_DIN_
  6
Continuous
 62
     7
100
AcDbPolyline
 90
        2
 70
     0
 43
0.5
 10
296.390476422918
 20
220.191178488956
 10
296.390476422918
 20
220.120232729384
  0
LWPOLYLINE
  5
35F
330
1F
100
AcDbEntity
  8
Sichtbare_Kanten_TC_020513_DIN_
  6
Continuous
 62
     7
100
AcDbPolyline
 90
        2
 70
     0
 43
0.5
 10
296.390476422918
 20
214.441324383584
 10
296.390476422918
 20
214.370378624012
  0
LWPOLYLINE
  5
360
330
1F
100
AcDbEntity
  8
Sichtbare_Kanten_TC_020513_DIN_
  6
Continuous
 62
     7
100
AcDbPolyline
 90
        2
 70
     0
 43
0.5
 10
296.390476422918
 20
211.530924451112
 10
296.390476422918
 20
211.530778556484
  0
LWPOLYLINE
  5
361
330
1F
100
AcDbEntity
  8
Sichtbare_Kanten_TC_020513_DIN_
  6
Continuous
 62
     7
100
AcDbPolyline
 90
        2
 70
     0
 43
0.5
 10
296.390476422918
 20
223.030778556484
 10
296.390476422918
 20
223.030632661856
  0
LWPOLYLINE
  5
362
330
1F
100
AcDbEntity
  8
Sichtbare_Kanten_TC_020513_DIN_
  6
Continuous
 62
     7
100
AcDbPolyline
 90
        2
 70
     0
 43
0.5
 10
152.890476422918
 20
211.530924451112
 10
152.890476422918
 20
211.530778556484
  0
LWPOLYLINE
  5
363
330
1F
100
AcDbEntity
  8
Sichtbare_Kanten_TC_020513_DIN_
  6
Continuous
 62
     7
100
AcDbPolyline
 90
        2
 70
     0
 43
0.5
 10
152.890476422918
 20
214.441324383584
 10
152.890476422918
 20
214.370378624012
  0
LWPOLYLINE
  5
364
330
1F
100
AcDbEntity
  8
Sichtbare_Kanten_TC_020513_DIN_
  6
Continuous
 62
     7
100
AcDbPolyline
 90
        2
 70
     0
 43
0.5
 10
152.890476422918
 20
220.191178488956
 10
152.890476422918
 20
220.120232729384
  0
LWPOLYLINE
  5
365
330
1F
100
AcDbEntity
  8
Sichtbare_Kanten_TC_020513_DIN_
  6
Continuous
 62
     7
100
AcDbPolyline
 90
        2
 70
     0
 43
0.5
 10
152.890476422918
 20
223.030778556484
 10
152.890476422918
 20
223.030632661856
  0
LWPOLYLINE
  5
366
330
1F
100
AcDbEntity
  8
Sichtbare_Kanten_TC_020513_DIN_
  6
Continuous
 62
     7
100
AcDbPolyline
 90
        2
 70
     0
 43
0.5
 10
298.957463721026
 20
214.441324383584
 10
296.390476422918
 20
214.441324383584
  0
LWPOLYLINE
  5
367
330
1F
100
AcDbEntity
  8
Sichtbare_Kanten_TC_020513_DIN_
  6
Continuous
 62
     7
100
AcDbPolyline
 90
        2
 70
     0
 43
0.5
 10
296.390476422918
 20
214.441324383584
 10
296.390476422918
 20
220.120232729384
  0
LWPOLYLINE
  5
368
330
1F
100
AcDbEntity
  8
Sichtbare_Kanten_TC_020513_DIN_
  6
Continuous
 62
     7
100
AcDbPolyline
 90
        2
 70
     0
 43
0.5
 10
296.390476422918
 20
220.120232729384
 10
298.957463721026
 20
220.120232729384
  0
LWPOLYLINE
  5
369
330
1F
100
AcDbEntity
  8
Sichtbare_Kanten_TC_020513_DIN_
  6
Continuous
 62
     7
100
AcDbPolyline
 90
        2
 70
     0
 43
0.5
 10
298.957463721026
 20
220.191178488956
 10
296.390476422918
 20
220.191178488956
  0
LWPOLYLINE
  5
36A
330
1F
100
AcDbEntity
  8
Sichtbare_Kanten_TC_020513_DIN_
  6
Continuous
 62
     7
100
AcDbPolyline
 90
        2
 70
     0
 43
0.5
 10
296.390476422918
 20
220.191178488956
 10
296.390476422918
 20
223.030632661856
  0
LWPOLYLINE
  5
36B
330
1F
100
AcDbEntity
  8
Sichtbare_Kanten_TC_020513_DIN_
  6
Continuous
 62
     7
100
AcDbPolyline
 90
        2
 70
     0
 43
0.5
 10
298.957463721026
 20
211.530924451112
 10
296.390476422918
 20
211.530924451112
  0
LWPOLYLINE
  5
36C
330
1F
100
AcDbEntity
  8
Sichtbare_Kanten_TC_020513_DIN_
  6
Continuous
 62
     7
100
AcDbPolyline
 90
        2
 70
     0
 43
0.5
 10
296.390476422918
 20
211.530924451112
 10
296.390476422918
 20
214.370378624012
  0
LWPOLYLINE
  5
36D
330
1F
100
AcDbEntity
  8
Sichtbare_Kanten_TC_020513_DIN_
  6
Continuous
 62
     7
100
AcDbPolyline
 90
        2
 70
     0
 43
0.5
 10
296.390476422918
 20
214.370378624012
 10
298.957463721026
 20
214.370378624012
  0
LWPOLYLINE
  5
36E
330
1F
100
AcDbEntity
  8
Sichtbare_Kanten_TC_020513_DIN_
  6
Continuous
 62
     7
100
AcDbPolyline
 90
        2
 70
     0
 43
0.5
 10
296.390476422918
 20
223.030632661856
 10
298.957463721026
 20
223.030632661856
  0
LWPOLYLINE
  5
36F
330
1F
100
AcDbEntity
  8
Sichtbare_Kanten_TC_020513_DIN_
  6
Continuous
 62
     7
100
AcDbPolyline
 90
        2
 70
     0
 43
0.5
 10
152.890476422918
 20
220.120232729384
 10
152.890476422918
 20
214.441324383584
  0
LWPOLYLINE
  5
370
330
1F
100
AcDbEntity
  8
Sichtbare_Kanten_TC_020513_DIN_
  6
Continuous
 62
     7
100
AcDbPolyline
 90
        2
 70
     0
 43
0.5
 10
152.890476422918
 20
214.441324383584
 10
150.32348912481
 20
214.441324383584
  0
LWPOLYLINE
  5
371
330
1F
100
AcDbEntity
  8
Sichtbare_Kanten_TC_020513_DIN_
  6
Continuous
 62
     7
100
AcDbPolyline
 90
        2
 70
     0
 43
0.5
 10
150.32348912481
 20
214.370378624012
 10
152.890476422918
 20
214.370378624012
  0
LWPOLYLINE
  5
372
330
1F
100
AcDbEntity
  8
Sichtbare_Kanten_TC_020513_DIN_
  6
Continuous
 62
     7
100
AcDbPolyline
 90
        2
 70
     0
 43
0.5
 10
152.890476422918
 20
214.370378624012
 10
152.890476422918
 20
211.530924451112
  0
LWPOLYLINE
  5
373
330
1F
100
AcDbEntity
  8
Sichtbare_Kanten_TC_020513_DIN_
  6
Continuous
 62
     7
100
AcDbPolyline
 90
        2
 70
     0
 43
0.5
 10
152.890476422918
 20
211.530924451112
 10
150.32348912481
 20
211.530924451112
  0
LWPOLYLINE
  5
374
330
1F
100
AcDbEntity
  8
Sichtbare_Kanten_TC_020513_DIN_
  6
Continuous
 62
     7
100
AcDbPolyline
 90
        2
 70
     0
 43
0.5
 10
150.32348912481
 20
220.120232729384
 10
152.890476422918
 20
220.120232729384
  0
LWPOLYLINE
  5
375
330
1F
100
AcDbEntity
  8
Sichtbare_Kanten_TC_020513_DIN_
  6
Continuous
 62
     7
100
AcDbPolyline
 90
        2
 70
     0
 43
0.5
 10
152.890476422918
 20
223.030632661856
 10
152.890476422918
 20
220.191178488956
  0
LWPOLYLINE
  5
376
330
1F
100
AcDbEntity
  8
Sichtbare_Kanten_TC_020513_DIN_
  6
Continuous
 62
     7
100
AcDbPolyline
 90
        2
 70
     0
 43
0.5
 10
152.890476422918
 20
220.191178488956
 10
150.32348912481
 20
220.191178488956
  0
LWPOLYLINE
  5
377
330
1F
100
AcDbEntity
  8
Sichtbare_Kanten_TC_020513_DIN_
  6
Continuous
 62
     7
100
AcDbPolyline
 90
        2
 70
     0
 43
0.5
 10
150.32348912481
 20
223.030632661856
 10
152.890476422918
 20
223.030632661856
  0
LWPOLYLINE
  5
378
330
1F
100
AcDbEntity
  8
Sichtbare_Kanten_TC_020513_DIN_
  6
Continuous
 62
     7
100
AcDbPolyline
 90
        2
 70
     0
 43
0.5
 10
299.390476422918
 20
222.280778556484
 10
298.957463721026
 20
223.030778556484
  0
LWPOLYLINE
  5
379
330
1F
100
AcDbEntity
  8
Sichtbare_Kanten_TC_020513_DIN_
  6
Continuous
 62
     7
100
AcDbPolyline
 90
        2
 70
     0
 43
0.5
 10
299.390476422918
 20
212.280778556484
 10
298.957463721026
 20
211.530778556484
  0
LWPOLYLINE
  5
37A
330
1F
100
AcDbEntity
  8
Sichtbare_Kanten_TC_020513_DIN_
  6
Continuous
 62
     7
100
AcDbPolyline
 90
        2
 70
     0
 43
0.5
 10
149.890476422918
 20
222.280778556484
 10
150.32348912481
 20
223.030778556484
  0
LWPOLYLINE
  5
37B
330
1F
100
AcDbEntity
  8
Sichtbare_Kanten_TC_020513_DIN_
  6
Continuous
 62
     7
100
AcDbPolyline
 90
        2
 70
     0
 43
0.5
 10
149.890476422918
 20
212.280778556484
 10
150.32348912481
 20
211.530778556484
  0
LWPOLYLINE
  5
37C
330
1F
100
AcDbEntity
  8
Sichtbare_Kanten_TC_020513_DIN_
  6
Continuous
 62
     7
100
AcDbPolyline
 90
        2
 70
     0
 43
0.5
 10
298.957463721026
 20
223.030778556484
 10
298.957463721026
 20
223.030632661856
  0
LWPOLYLINE
  5
37D
330
1F
100
AcDbEntity
  8
Sichtbare_Kanten_TC_020513_DIN_
  6
Continuous
 62
     7
100
AcDbPolyline
 90
        2
 70
     0
 43
0.5
 10
299.390476422918
 20
221.610905575406
 10
299.390476422918
 20
222.280778556484
  0
LWPOLYLINE
  5
37E
330
1F
100
AcDbEntity
  8
Sichtbare_Kanten_TC_020513_DIN_
  6
Continuous
 62
     7
100
AcDbPolyline
 90
        2
 70
     0
 43
0.5
 10
299.390476422918
 20
217.280778556484
 10
299.390476422918
 20
221.610905575406
  0
LWPOLYLINE
  5
37F
330
1F
100
AcDbEntity
  8
Sichtbare_Kanten_TC_020513_DIN_
  6
Continuous
 62
     7
100
AcDbPolyline
 90
        2
 70
     0
 43
0.5
 10
298.957463721026
 20
220.191178488956
 10
298.957463721026
 20
220.120232729384
  0
LWPOLYLINE
  5
380
330
1F
100
AcDbEntity
  8
Sichtbare_Kanten_TC_020513_DIN_
  6
Continuous
 62
     7
100
AcDbPolyline
 90
        2
 70
     0
 43
0.5
 10
299.390476422918
 20
212.950651537562
 10
299.390476422918
 20
217.280778556484
  0
LWPOLYLINE
  5
381
330
1F
100
AcDbEntity
  8
Sichtbare_Kanten_TC_020513_DIN_
  6
Continuous
 62
     7
100
AcDbPolyline
 90
        2
 70
     0
 43
0.5
 10
298.957463721026
 20
214.441324383584
 10
298.957463721026
 20
214.370378624012
  0
LWPOLYLINE
  5
382
330
1F
100
AcDbEntity
  8
Sichtbare_Kanten_TC_020513_DIN_
  6
Continuous
 62
     7
100
AcDbPolyline
 90
        2
 70
     0
 43
0.5
 10
299.390476422918
 20
212.280778556484
 10
299.390476422918
 20
212.950651537562
  0
LWPOLYLINE
  5
383
330
1F
100
AcDbEntity
  8
Sichtbare_Kanten_TC_020513_DIN_
  6
Continuous
 62
     7
100
AcDbPolyline
 90
        2
 70
     0
 43
0.5
 10
298.957463721026
 20
211.530924451112
 10
298.957463721026
 20
211.530778556484
  0
LWPOLYLINE
  5
384
330
1F
100
AcDbEntity
  8
Sichtbare_Kanten_TC_020513_DIN_
  6
Continuous
 62
     7
100
AcDbPolyline
 90
        2
 70
     0
 43
0.5
 10
150.32348912481
 20
223.030632661856
 10
150.32348912481
 20
223.030778556484
  0
LWPOLYLINE
  5
385
330
1F
100
AcDbEntity
  8
Sichtbare_Kanten_TC_020513_DIN_
  6
Continuous
 62
     7
100
AcDbPolyline
 90
        2
 70
     0
 43
0.5
 10
149.890476422918
 20
222.280778556484
 10
149.890476422918
 20
221.610905575406
  0
LWPOLYLINE
  5
386
330
1F
100
AcDbEntity
  8
Sichtbare_Kanten_TC_020513_DIN_
  6
Continuous
 62
     7
100
AcDbPolyline
 90
        2
 70
     0
 43
0.5
 10
149.890476422918
 20
212.950651537562
 10
149.890476422918
 20
212.280778556484
  0
LWPOLYLINE
  5
387
330
1F
100
AcDbEntity
  8
Sichtbare_Kanten_TC_020513_DIN_
  6
Continuous
 62
     7
100
AcDbPolyline
 90
        2
 70
     0
 43
0.5
 10
150.32348912481
 20
211.530778556484
 10
150.32348912481
 20
211.530924451112
  0
LWPOLYLINE
  5
388
330
1F
100
AcDbEntity
  8
Sichtbare_Kanten_TC_020513_DIN_
  6
Continuous
 62
     7
100
AcDbPolyline
 90
        2
 70
     0
 43
0.5
 10
149.890476422918
 20
217.280778556484
 10
149.890476422918
 20
212.950651537562
  0
LWPOLYLINE
  5
389
330
1F
100
AcDbEntity
  8
Sichtbare_Kanten_TC_020513_DIN_
  6
Continuous
 62
     7
100
AcDbPolyline
 90
        2
 70
     0
 43
0.5
 10
150.32348912481
 20
214.370378624012
 10
150.32348912481
 20
214.441324383584
  0
LWPOLYLINE
  5
38A
330
1F
100
AcDbEntity
  8
Sichtbare_Kanten_TC_020513_DIN_
  6
Continuous
 62
     7
100
AcDbPolyline
 90
        2
 70
     0
 43
0.5
 10
150.32348912481
 20
220.120232729384
 10
150.32348912481
 20
220.191178488956
  0
LWPOLYLINE
  5
38B
330
1F
100
AcDbEntity
  8
Sichtbare_Kanten_TC_020513_DIN_
  6
Continuous
 62
     7
100
AcDbPolyline
 90
        2
 70
     0
 43
0.5
 10
149.890476422918
 20
221.610905575406
 10
149.890476422918
 20
217.280778556484
  0
LWPOLYLINE
  5
38C
330
1F
100
AcDbEntity
  8
Sichtbare_Kanten_TC_020513_DIN_
  6
Continuous
 62
     7
100
AcDbPolyline
 90
        2
 70
     0
 43
0.5
 10
141.890476422918
 20
193.080778556484
 10
141.890476422918
 20
200.080778556484
  0
LWPOLYLINE
  5
38D
330
1F
100
AcDbEntity
  8
Sichtbare_Kanten_TC_020513_DIN_
  6
Continuous
 62
     7
100
AcDbPolyline
 90
        2
 70
     0
 43
0.5
 10
307.390476422918
 20
193.080778556484
 10
307.390476422918
 20
200.080778556484
  0
LWPOLYLINE
  5
38E
330
1F
100
AcDbEntity
  8
Sichtbare_Kanten_TC_020513_DIN_
  6
Continuous
 62
     7
100
AcDbPolyline
 90
        2
 70
     0
 43
0.5
 10
351.6577120572201
 20
219.580778556484
 10
365.1577120572201
 20
206.080778556484
  0
LWPOLYLINE
  5
38F
330
1F
100
AcDbEntity
  8
Sichtbare_Kanten_TC_020513_DIN_
  6
Continuous
 62
     7
100
AcDbPolyline
 90
        2
 70
     0
 43
0.5
 10
351.6577120572201
 20
232.080778556484
 10
351.6577120572201
 20
219.580778556484
  0
LWPOLYLINE
  5
390
330
1F
100
AcDbEntity
  8
Sichtbare_Kanten_TC_020513_DIN_
  6
Continuous
 62
     7
100
AcDbPolyline
 90
        2
 70
     0
 43
0.5
 10
361.6577120572201
 20
224.080778556484
 10
361.6577120572201
 20
232.080778556484
  0
LWPOLYLINE
  5
391
330
1F
100
AcDbEntity
  8
Sichtbare_Kanten_TC_020513_DIN_
  6
Continuous
 62
     7
100
AcDbPolyline
 90
        2
 70
     0
 43
0.5
 10
362.51438326469
 20
224.080778556484
 10
361.6577120572301
 20
226.903899581067
  0
LWPOLYLINE
  5
392
330
1F
100
AcDbEntity
  8
Sichtbare_Kanten_TC_020513_DIN_
  6
Continuous
 62
     7
100
AcDbPolyline
 90
        2
 70
     0
 43
0.5
 10
365.1577120572201
 20
224.080778556484
 10
361.6577120572201
 20
224.080778556484
  0
LWPOLYLINE
  5
393
330
1F
100
AcDbEntity
  8
Sichtbare_Kanten_TC_020513_DIN_
  6
Continuous
 62
     7
100
AcDbPolyline
 90
        2
 70
     0
 43
0.5
 10
182.3904764229181
 20
237.080778556484
 10
182.3904764229181
 20
229.780778556484
  0
LWPOLYLINE
  5
394
330
1F
100
AcDbEntity
  8
Sichtbare_Kanten_TC_020513_DIN_
  6
Continuous
 62
     7
100
AcDbPolyline
 90
        2
 70
     0
 43
0.5
 10
182.3904764229181
 20
237.080778556484
 10
184.3904764229181
 20
237.080778556484
  0
LWPOLYLINE
  5
395
330
1F
100
AcDbEntity
  8
Sichtbare_Kanten_TC_020513_DIN_
  6
Continuous
 62
     7
100
AcDbPolyline
 90
        2
 70
     0
 43
0.5
 10
189.3904764229181
 20
236.1427302686781
 10
184.683278853257
 20
236.1427302686781
  0
LWPOLYLINE
  5
396
330
1F
100
AcDbEntity
  8
Sichtbare_Kanten_TC_020513_DIN_
  6
Continuous
 62
     7
100
AcDbPolyline
 90
        2
 70
     0
 43
0.5
 10
189.3904764229181
 20
236.0385026811441
 10
189.3904764229181
 20
229.780778556484
  0
LWPOLYLINE
  5
397
330
1F
100
AcDbEntity
  8
Sichtbare_Kanten_TC_020513_DIN_
  6
Continuous
 62
     7
100
AcDbPolyline
 90
        2
 70
     0
 43
0.5
 10
264.5976739925791
 20
236.1427302686781
 10
259.8904764229181
 20
236.1427302686781
  0
LWPOLYLINE
  5
398
330
1F
100
AcDbEntity
  8
Sichtbare_Kanten_TC_020513_DIN_
  6
Continuous
 62
     7
100
AcDbPolyline
 90
        2
 70
     0
 43
0.5
 10
264.8904764229181
 20
237.080778556484
 10
266.8904764229181
 20
237.080778556484
  0
LWPOLYLINE
  5
399
330
1F
100
AcDbEntity
  8
Sichtbare_Kanten_TC_020513_DIN_
  6
Continuous
 62
     7
100
AcDbPolyline
 90
        2
 70
     0
 43
0.5
 10
266.8904764229181
 20
237.080778556484
 10
266.8904764229181
 20
229.780778556484
  0
LWPOLYLINE
  5
39A
330
1F
100
AcDbEntity
  8
Sichtbare_Kanten_TC_020513_DIN_
  6
Continuous
 62
     7
100
AcDbPolyline
 90
        2
 70
     0
 43
0.5
 10
259.8904764229181
 20
236.1427302686781
 10
259.8904764229181
 20
229.7807785564841
  0
LWPOLYLINE
  5
39B
330
1F
100
AcDbEntity
  8
Sichtbare_Kanten_TC_020513_DIN_
  6
Continuous
 62
     7
100
AcDbPolyline
 90
        2
 70
     0
 43
0.5
 10
400.657712057212
 20
212.280778556484
 42
0.4142135623731
 10
405.657712057212
 20
207.280778556484
 42
0.4142135623731
  0
LWPOLYLINE
  5
39C
330
1F
100
AcDbEntity
  8
Sichtbare_Kanten_TC_020513_DIN_
  6
Continuous
 62
     7
100
AcDbPolyline
 90
        2
 70
     0
 43
0.5
 10
413.818646415293
 20
236.26082290586
 42
0.37688542376787
 10
400.657712057212
 20
237.280778556484
 42
0.37688542376787
  0
LWPOLYLINE
  5
39D
330
1F
100
AcDbEntity
  8
Sichtbare_Kanten_TC_020513_DIN_
  6
Continuous
 62
     7
100
AcDbPolyline
 90
        2
 70
     0
 43
0.5
 10
425.293338313979
 20
224.488760816734
 42
1.14766411894716
 10
430.157712057212
 20
230.744880171622
 42
1.14766411894716
  0
LWPOLYLINE
  5
39E
330
1F
100
AcDbEntity
  8
Sichtbare_Kanten_TC_020513_DIN_
  6
Continuous
 62
     7
100
AcDbPolyline
 90
        2
 70
     0
 43
0.5
 10
429.658210201601
 20
231.579345464028
 42
0.25950895310424
 10
430.157712057212
 20
230.744880171622
 42
0.25950895310424
  0
LWPOLYLINE
  5
39F
330
1F
100
AcDbEntity
  8
Sichtbare_Kanten_TC_020513_DIN_
  6
Continuous
 62
     7
100
AcDbPolyline
 90
        2
 70
     0
 43
0.5
 10
429.658210201601
 20
231.579345464028
 42
0.29612964079218
 10
421.26777235279
 20
243.651725962956
 42
0.29612964079218
  0
LWPOLYLINE
  5
3A0
330
1F
100
AcDbEntity
  8
Sichtbare_Kanten_TC_020513_DIN_
  6
Continuous
 62
     7
100
AcDbPolyline
 90
        2
 70
     0
 43
0.5
 10
424.157712057212
 20
253.17975804205
 42
0.91095026126733
 10
421.26777235279
 20
243.651725962956
 42
0.91095026126733
  0
LWPOLYLINE
  5
3A1
330
1F
100
AcDbEntity
  8
Sichtbare_Kanten_TC_020513_DIN_
  6
Continuous
 62
     7
100
AcDbPolyline
 90
        2
 70
     0
 43
0.5
 10
492.068936905683
 20
208.223437662101
 42
0.13785647761338
 10
487.139850953796
 20
209.480006942687
 42
0.13785647761338
  0
LWPOLYLINE
  5
3A2
330
1F
100
AcDbEntity
  8
Sichtbare_Kanten_TC_020513_DIN_
  6
Continuous
 62
     7
100
AcDbPolyline
 90
        2
 70
     0
 43
0.5
 10
491.368936905683
 20
207.011002096803
 42
0.13785647761339
 10
487.173970138119
 20
208.080422761131
 42
0.13785647761339
  0
LWPOLYLINE
  5
3A3
330
1F
100
AcDbEntity
  8
Sichtbare_Kanten_TC_020513_DIN_
  6
Continuous
 62
     7
100
AcDbPolyline
 90
        2
 70
     0
 43
0.5
 10
385.657712057209
 20
199.580778556484
 42
0.4142135623731
 10
386.657712057209
 20
198.580778556484
 42
0.4142135623731
  0
LWPOLYLINE
  5
3A4
330
1F
100
AcDbEntity
  8
Sichtbare_Kanten_TC_020513_DIN_
  6
Continuous
 62
     7
100
AcDbPolyline
 90
        2
 70
     0
 43
0.5
 10
434.657712057209
 20
198.580778556484
 42
0.4142135623731
 10
435.657712057209
 20
199.580778556484
 42
0.4142135623731
  0
LWPOLYLINE
  5
3A5
330
1F
100
AcDbEntity
  8
Sichtbare_Kanten_TC_020513_DIN_
  6
Continuous
 62
     7
100
AcDbPolyline
 90
        2
 70
     0
 43
0.5
 10
456.157712057212
 20
200.080778556484
 42
0.4142135623731
 10
455.157712057211
 20
201.080778556484
 42
0.4142135623731
  0
LWPOLYLINE
  5
3A6
330
1F
100
AcDbEntity
  8
Sichtbare_Kanten_TC_020513_DIN_
  6
Continuous
 62
     7
100
AcDbPolyline
 90
        2
 70
     0
 43
0.5
 10
436.657712057209
 20
201.080778556484
 42
0.4142135623731
 10
435.657712057209
 20
200.080778556484
 42
0.4142135623731
  0
LWPOLYLINE
  5
3A7
330
1F
100
AcDbEntity
  8
Sichtbare_Kanten_TC_020513_DIN_
  6
Continuous
 62
     7
100
AcDbPolyline
 90
        2
 70
     0
 43
0.5
 10
366.157712057212
 20
201.080778556484
 42
0.4142135623731
 10
365.157712057211
 20
200.080778556484
 42
0.4142135623731
  0
LWPOLYLINE
  5
3A8
330
1F
100
AcDbEntity
  8
Sichtbare_Kanten_TC_020513_DIN_
  6
Continuous
 62
     7
100
AcDbPolyline
 90
        2
 70
     0
 43
0.5
 10
385.657712057209
 20
200.080778556484
 42
0.4142135623731
 10
384.657712057209
 20
201.080778556484
 42
0.4142135623731
  0
LWPOLYLINE
  5
3A9
330
1F
100
AcDbEntity
  8
Sichtbare_Kanten_TC_020513_DIN_
  6
Continuous
 62
     7
100
AcDbPolyline
 90
        2
 70
     0
 43
0.5
 10
410.698672610598
 20
223.030632661856
 42
0.00356183243819
 10
410.616751503824
 20
223.030632661856
 42
0.00356183243819
  0
LWPOLYLINE
  5
3AA
330
1F
100
AcDbEntity
  8
Sichtbare_Kanten_TC_020513_DIN_
  6
Continuous
 62
     7
100
AcDbPolyline
 90
        2
 70
     0
 43
0.5
 10
413.157712057211
 20
221.610905575406
 42
0.26794919243113
 10
408.157712057211
 20
221.610905575406
 42
0.26794919243113
  0
LWPOLYLINE
  5
3AB
330
1F
100
AcDbEntity
  8
Sichtbare_Kanten_TC_020513_DIN_
  6
Continuous
 62
     7
100
AcDbPolyline
 90
        2
 70
     0
 43
0.5
 10
408.157712057211
 20
221.610905575406
 42
0.26794919243112
 10
405.657712057211
 20
217.280778556484
 42
0.26794919243112
  0
LWPOLYLINE
  5
3AC
330
1F
100
AcDbEntity
  8
Sichtbare_Kanten_TC_020513_DIN_
  6
Continuous
 62
     7
100
AcDbPolyline
 90
        2
 70
     0
 43
0.5
 10
405.698672610598
 20
220.191178488956
 42
0.00356183243818
 10
405.657712057211
 20
220.120232729384
 42
0.00356183243818
  0
LWPOLYLINE
  5
3AD
330
1F
100
AcDbEntity
  8
Sichtbare_Kanten_TC_020513_DIN_
  6
Continuous
 62
     7
100
AcDbPolyline
 90
        2
 70
     0
 43
0.5
 10
405.657712057211
 20
217.280778556484
 42
0.26794919243112
 10
408.157712057211
 20
212.950651537562
 42
0.26794919243112
  0
LWPOLYLINE
  5
3AE
330
1F
100
AcDbEntity
  8
Sichtbare_Kanten_TC_020513_DIN_
  6
Continuous
 62
     7
100
AcDbPolyline
 90
        2
 70
     0
 43
0.5
 10
405.657712057211
 20
214.441324383584
 42
0.00356183243818
 10
405.698672610598
 20
214.370378624012
 42
0.00356183243818
  0
LWPOLYLINE
  5
3AF
330
1F
100
AcDbEntity
  8
Sichtbare_Kanten_TC_020513_DIN_
  6
Continuous
 62
     7
100
AcDbPolyline
 90
        2
 70
     0
 43
0.5
 10
408.157712057211
 20
212.950651537562
 42
0.26794919243113
 10
413.157712057211
 20
212.950651537562
 42
0.26794919243113
  0
LWPOLYLINE
  5
3B0
330
1F
100
AcDbEntity
  8
Sichtbare_Kanten_TC_020513_DIN_
  6
Continuous
 62
     7
100
AcDbPolyline
 90
        2
 70
     0
 43
0.5
 10
410.616751503824
 20
211.530924451112
 42
0.00356183243819
 10
410.698672610598
 20
211.530924451112
 42
0.00356183243819
  0
LWPOLYLINE
  5
3B1
330
1F
100
AcDbEntity
  8
Sichtbare_Kanten_TC_020513_DIN_
  6
Continuous
 62
     7
100
AcDbPolyline
 90
        2
 70
     0
 43
0.5
 10
413.157712057211
 20
212.950651537562
 42
0.26794919243112
 10
415.657712057211
 20
217.280778556484
 42
0.26794919243112
  0
LWPOLYLINE
  5
3B2
330
1F
100
AcDbEntity
  8
Sichtbare_Kanten_TC_020513_DIN_
  6
Continuous
 62
     7
100
AcDbPolyline
 90
        2
 70
     0
 43
0.5
 10
415.616751503824
 20
214.370378624012
 42
0.00356183243818
 10
415.657712057211
 20
214.441324383584
 42
0.00356183243818
  0
LWPOLYLINE
  5
3B3
330
1F
100
AcDbEntity
  8
Sichtbare_Kanten_TC_020513_DIN_
  6
Continuous
 62
     7
100
AcDbPolyline
 90
        2
 70
     0
 43
0.5
 10
415.657712057211
 20
220.120232729384
 42
0.00356183243818
 10
415.616751503824
 20
220.191178488956
 42
0.00356183243818
  0
LWPOLYLINE
  5
3B4
330
1F
100
AcDbEntity
  8
Sichtbare_Kanten_TC_020513_DIN_
  6
Continuous
 62
     7
100
AcDbPolyline
 90
        2
 70
     0
 43
0.5
 10
415.657712057211
 20
217.280778556484
 42
0.26794919243112
 10
413.157712057211
 20
221.610905575406
 42
0.26794919243112
  0
LWPOLYLINE
  5
3B5
330
1F
100
AcDbEntity
  8
Sichtbare_Kanten_TC_020513_DIN_
  6
Continuous
 62
     7
100
AcDbPolyline
 90
        2
 70
     0
 43
0.5
 10
307.390476422918
 20
200.080778556484
 42
0.4142135623731
 10
306.390476422918
 20
201.080778556484
 42
0.4142135623731
  0
LWPOLYLINE
  5
3B6
330
1F
100
AcDbEntity
  8
Sichtbare_Kanten_TC_020513_DIN_
  6
Continuous
 62
     7
100
AcDbPolyline
 90
        2
 70
     0
 43
0.5
 10
142.890476422918
 20
201.080778556484
 42
0.4142135623731
 10
141.890476422918
 20
200.080778556484
 42
0.4142135623731
  0
LWPOLYLINE
  5
3B7
330
1F
100
AcDbEntity
  8
Sichtbare_Kanten_TC_020513_DIN_
  6
Continuous
 62
     7
100
AcDbPolyline
 90
        2
 70
     0
 43
0.5
 10
222.765476422918
 20
215.393999510121
 42
1.0
 10
223.515476422918
 20
215.393999510121
 42
1.0
  0
LWPOLYLINE
  5
3B8
330
1F
100
AcDbEntity
  8
Sichtbare_Kanten_TC_020513_DIN_
  6
Continuous
 62
     7
100
AcDbPolyline
 90
        2
 70
     0
 43
0.5
 10
223.444205282409
 20
220.761536465205
 42
0.7271455171383
 10
222.765476422918
 20
220.541596064386
 42
0.7271455171383
  0
LWPOLYLINE
  5
3B9
330
1F
100
AcDbEntity
  8
Sichtbare_Kanten_TC_020513_DIN_
  6
Continuous
 62
     7
100
AcDbPolyline
 90
        2
 70
     0
 43
0.5
 10
226.515476422918
 20
220.541596064386
 42
0.7271455171377
 10
225.836747563428
 20
220.761536465205
 42
0.7271455171377
  0
LWPOLYLINE
  5
3BA
330
1F
100
AcDbEntity
  8
Sichtbare_Kanten_TC_020513_DIN_
  6
Continuous
 62
     7
100
AcDbPolyline
 90
        2
 70
     0
 43
0.5
 10
225.765476422918
 20
213.619961048582
 42
1.0
 10
226.515476422918
 20
213.619961048582
 42
1.0
  0
LWPOLYLINE
  5
3BB
330
1F
100
AcDbEntity
  8
Sichtbare_Kanten_TC_020513_DIN_
  6
Continuous
 62
     7
100
AcDbPolyline
 90
        2
 70
     0
 43
0.5
 10
221.940476422918
 20
219.632942218232
 42
1.0
 10
221.190476422918
 20
219.632942218232
 42
1.0
  0
LWPOLYLINE
  5
3BC
330
1F
100
AcDbEntity
  8
Sichtbare_Kanten_TC_020513_DIN_
  6
Continuous
 62
     7
100
AcDbPolyline
 90
        2
 70
     0
 43
0.5
 10
224.45308050286
 20
212.42975683843
 42
0.99999999999885
 10
224.827872342977
 20
213.079396027966
 42
0.99999999999885
  0
LWPOLYLINE
  5
3BD
330
1F
100
AcDbEntity
  8
Sichtbare_Kanten_TC_020513_DIN_
  6
Continuous
 62
     7
100
AcDbPolyline
 90
        2
 70
     0
 43
0.5
 10
221.190476422918
 20
214.528614894736
 42
0.26803505952235
 10
221.37808050286
 20
214.203795299968
 42
0.26803505952235
  0
LWPOLYLINE
  5
3BE
330
1F
100
AcDbEntity
  8
Sichtbare_Kanten_TC_020513_DIN_
  6
Continuous
 62
     7
100
AcDbPolyline
 90
        2
 70
     0
 43
0.5
 10
219.690476422918
 20
215.393999510121
 42
1.0
 10
220.440476422918
 20
215.393999510121
 42
1.0
  0
LWPOLYLINE
  5
3BF
330
1F
100
AcDbEntity
  8
Sichtbare_Kanten_TC_020513_DIN_
  6
Continuous
 62
     7
100
AcDbPolyline
 90
        2
 70
     0
 43
0.5
 10
220.440476422918
 20
218.767557602847
 42
1.0
 10
219.690476422918
 20
218.767557602847
 42
1.0
  0
LWPOLYLINE
  5
3C0
330
1F
100
AcDbEntity
  8
Sichtbare_Kanten_TC_020513_DIN_
  6
Continuous
 62
     7
100
AcDbPolyline
 90
        2
 70
     0
 43
0.5
 10
227.827872342977
 20
220.001031043769
 42
0.57724345630817
 10
227.265476422918
 20
219.676211449001
 42
0.57724345630817
  0
LWPOLYLINE
  5
3C1
330
1F
100
AcDbEntity
  8
Sichtbare_Kanten_TC_020513_DIN_
  6
Continuous
 62
     7
100
AcDbPolyline
 90
        2
 70
     0
 43
0.5
 10
228.95308050286
 20
218.486007238848
 42
0.99999999999951
 10
229.327872342977
 20
219.135646428385
 42
0.99999999999951
  0
LWPOLYLINE
  5
3C2
330
1F
100
AcDbEntity
  8
Sichtbare_Kanten_TC_020513_DIN_
  6
Continuous
 62
     7
100
AcDbPolyline
 90
        2
 70
     0
 43
0.5
 10
229.140476422918
 20
216.705778556484
 42
1.0
 10
229.140476422918
 20
217.455778556484
 42
1.0
  0
LWPOLYLINE
  5
3C3
330
1F
100
AcDbEntity
  8
Sichtbare_Kanten_TC_020513_DIN_
  6
Continuous
 62
     7
100
AcDbPolyline
 90
        2
 70
     0
 43
0.5
 10
229.327872342977
 20
215.025910684583
 42
0.99999999999951
 10
228.95308050286
 20
215.67554987412
 42
0.99999999999951
  0
LWPOLYLINE
  5
3C4
330
1F
100
AcDbEntity
  8
Sichtbare_Kanten_TC_020513_DIN_
  6
Continuous
 62
     7
100
AcDbPolyline
 90
        2
 70
     0
 43
0.5
 10
227.265476422918
 20
214.485345663967
 42
0.57724345630817
 10
227.827872342977
 20
214.160526069199
 42
0.57724345630817
  0
LWPOLYLINE
  5
3C5
330
1F
100
AcDbEntity
  8
Stich_1-Linien_TC_020513_DIN_
  6
DASHED_SPACE
 62
     7
100
AcDbPolyline
 90
        2
 70
     0
 43
0.25
 10
498.5335383136689
 20
183.8992427367811
 42
0.09100873569008
 10
504.660306563625
 20
217.2807785564841
 42
0.09100873569008
  0
LWPOLYLINE
  5
3C6
330
1F
100
AcDbEntity
  8
Sichtbare_Kanten_TC_020513_DIN_
  6
Continuous
 62
     7
100
AcDbPolyline
 90
        2
 70
     0
 43
0.5
 10
361.6577120572201
 20
232.080778556484
 42
1.0
 10
351.6577120572201
 20
232.080778556484
 42
1.0
  0
LWPOLYLINE
  5
3C7
330
1F
100
AcDbEntity
  8
Sichtbare_Kanten_TC_020513_DIN_
  6
Continuous
 62
     7
100
AcDbPolyline
 90
        2
 70
     0
 43
0.5
 10
361.6577120572201
 20
232.080778556484
 42
1.0
 10
351.6577120572201
 20
232.080778556484
 42
1.0
  0
LWPOLYLINE
  5
3C8
330
1F
100
AcDbEntity
  8
Sichtbare_Kanten_TC_020513_DIN_
  6
Continuous
 62
     7
100
AcDbPolyline
 90
        2
 70
     0
 43
0.5
 10
184.8904764229181
 20
236.580778556484
 42
0.4142135623731
 10
184.3904764229181
 20
237.080778556484
 42
0.4142135623731
  0
LWPOLYLINE
  5
3C9
330
1F
100
AcDbEntity
  8
Skizziergeometrie_TC_020513_DIN_
  6
Continuous
 62
     7
100
AcDbPolyline
 90
        2
 70
     1
 43
0.5
 10
135.655947618469
 20
337.372133690129
 42
1.0
 10
138.255947618469
 20
337.372133690129
 42
1.0
  0
LWPOLYLINE
  5
3CA
330
1F
100
AcDbEntity
  8
Skizziergeometrie_TC_020513_DIN_
  6
Continuous
 62
     7
100
AcDbPolyline
 90
        2
 70
     1
 43
0.5
 10
76.45594761846888
 20
337.372133690129
 42
1.0
 10
79.0559476184689
 20
337.372133690129
 42
1.0
  0
LWPOLYLINE
  5
3CB
330
1F
100
AcDbEntity
  8
Skizziergeometrie_TC_020513_DIN_
  6
Continuous
 62
     7
100
AcDbPolyline
 90
        2
 70
     1
 43
0.5
 10
135.655947618469
 20
309.372133690129
 42
1.0
 10
138.255947618469
 20
309.372133690129
 42
1.0
  0
LWPOLYLINE
  5
3CC
330
1F
100
AcDbEntity
  8
Skizziergeometrie_TC_020513_DIN_
  6
Continuous
 62
     7
100
AcDbPolyline
 90
        2
 70
     1
 43
0.5
 10
76.45594761846888
 20
309.372133690129
 42
1.0
 10
79.0559476184689
 20
309.372133690129
 42
1.0
  0
SPLINE
  5
3CD
330
1F
100
AcDbEntity
  8
Sichtbare_Kanten_TC_020513_DIN_
  6
Continuous
 62
     7
100
AcDbSpline
210
0.0
220
0.0
230
1.0
 70
     8
 71
     3
 72
    21
 73
    17
 74
    15
 42
0.000000001
 43
0.0000000001
 44
0.00000001
 40
0.0
 40
0.0
 40
0.0
 40
0.0
 40
1.21511198864837
 40
2.430265747915864
 40
3.052503030845995
 40
3.674767815434561
 40
4.311492467531246
 40
4.948238950890401
 40
5.601048831019369
 40
6.253883293888256
 40
6.922397384144531
 40
7.590931053213781
 40
8.27296374148191
 40
8.955001243937863
 40
10.34295798064497
 40
11.73093399971238
 40
11.73093399971238
 40
11.73093399971238
 40
11.73093399971238
 10
155.540476422918
 20
213.302304417654
 30
0.0
 10
155.5642843321311
 20
212.8966225608233
 30
0.0
 10
155.6119009831486
 20
212.0852449029493
 30
0.0
 10
155.92949504669
 20
211.1070611995868
 30
0.0
 10
156.282586059035
 20
210.3667869597622
 30
0.0
 10
156.6068877154104
 20
209.8287443119962
 30
0.0
 10
156.982250320623
 20
209.3193612169818
 30
0.0
 10
157.4090053519809
 20
208.8384491481549
 30
0.0
 10
157.8805626686525
 20
208.3935588485238
 30
0.0
 10
158.3969498262881
 20
207.9844064185085
 30
0.0
 10
158.9503145556892
 20
207.6172581039731
 30
0.0
 10
159.5404429745996
 20
207.2922330616166
 30
0.0
 10
160.1589629775297
 20
207.0135440254447
 30
0.0
 10
161.0233000564454
 20
206.7053092332398
 30
0.0
 10
162.1512912629962
 20
206.4341654254135
 30
0.0
 10
163.0774125582149
 20
206.3941226878801
 30
0.0
 10
163.540476422918
 20
206.374101187378
 30
0.0
 11
155.540476422918
 21
213.302304417654
 31
0.0
 11
155.6632077596726
 21
212.0934065014558
 31
0.0
 11
156.022935456631
 21
210.9327193558457
 31
0.0
 11
156.2915531305383
 21
210.371449560698
 31
0.0
 11
156.6122731926429
 21
209.8382028025162
 31
0.0
 11
156.9897400693145
 21
209.3254289335487
 31
0.0
 11
157.4121208779663
 21
208.8489412238424
 31
0.0
 11
157.8866935549671
 21
208.4006762188385
 31
0.0
 11
158.3981755454261
 21
207.9949928323022
 31
0.0
 11
158.9550510254644
 21
207.6251269251008
 31
0.0
 11
159.5404764229181
 21
207.302304417654
 31
0.0
 11
160.1622944448433
 21
207.0221063876187
 31
0.0
 11
160.8043152763128
 21
206.7919229668591
 31
0.0
 11
162.1564376460177
 21
206.4785717229279
 31
0.0
 11
163.540476422918
 21
206.374101187378
 31
0.0
  0
SPLINE
  5
3CE
330
1F
100
AcDbEntity
  8
Sichtbare_Kanten_TC_020513_DIN_
  6
Continuous
 62
     7
100
AcDbSpline
210
0.0
220
0.0
230
1.0
 70
     8
 71
     3
 72
    21
 73
    17
 74
    15
 42
0.000000001
 43
0.0000000001
 44
0.00000001
 40
0.0
 40
0.0
 40
0.0
 40
0.0
 40
1.427756587227059
 40
2.855562254891002
 40
3.586691062532431
 40
4.317852184593904
 40
5.066003650957525
 40
5.814180769034789
 40
6.581232378302984
 40
7.348312872276478
 40
8.133816928420332
 40
8.91934398965807
 40
9.720732398445255
 40
10.5221264638922
 40
12.15297562963375
 40
13.78384745199108
 40
13.78384745199108
 40
13.78384745199108
 40
13.78384745199108
 10
154.140476422918
 20
213.302304417654
 30
0.0
 10
154.1684507162543
 20
212.8256282356891
 30
0.0
 10
154.2244002787411
 20
211.8722594870638
 30
0.0
 10
154.5975733045996
 20
210.7228936353371
 30
0.0
 10
155.0124552441948
 20
209.8530714033037
 30
0.0
 10
155.3935096906087
 20
209.220871292068
 30
0.0
 10
155.8345607518633
 20
208.6223461553399
 30
0.0
 10
156.3359979138372
 20
208.057274474404
 30
0.0
 10
156.8900777610405
 20
207.5345283722892
 30
0.0
 10
157.4968326713666
 20
207.0537742669859
 30
0.0
 10
158.147036228506
 20
206.622374997379
 30
0.0
 10
158.8404371208096
 20
206.2404705725978
 30
0.0
 10
159.5671981243234
 20
205.9130109550593
 30
0.0
 10
160.5827941921408
 20
205.5508350743276
 30
0.0
 10
161.9081838598108
 20
205.2322410992035
 30
0.0
 10
162.9963763819075
 20
205.1851908851692
 30
0.0
 10
163.540476422918
 20
205.16166562208
 30
0.0
 11
154.140476422918
 21
213.302304417654
 31
0.0
 11
154.2846857436046
 21
211.8818493661213
 31
0.0
 11
154.7073657875309
 21
210.5180419700292
 31
0.0
 11
155.0229915543719
 21
209.8585499607308
 31
0.0
 11
155.3998376273448
 21
209.2319850198672
 31
0.0
 11
155.843361207434
 21
208.6294757238306
 31
0.0
 11
156.3396586575998
 21
208.0696026649256
 31
0.0
 11
156.8972815530754
 21
207.5428912840462
 31
0.0
 11
157.4982728918644
 21
207.066213304866
 31
0.0
 11
158.1526015809095
 21
206.631620863904
 31
0.0
 11
158.8404764229179
 21
206.2523044176536
 31
0.0
 11
159.5711125986803
 21
205.9230717323622
 31
0.0
 11
160.3254870756569
 21
205.6526062129696
 31
0.0
 11
161.9142308600601
 21
205.284418501351
 31
0.0
 11
163.540476422918
 21
205.16166562208
 31
0.0
  0
SPLINE
  5
3CF
330
1F
100
AcDbEntity
  8
Sichtbare_Kanten_TC_020513_DIN_
  6
Continuous
 62
     7
100
AcDbSpline
210
0.0
220
0.0
230
1.0
 70
     8
 71
     3
 72
    21
 73
    17
 74
    15
 42
0.000000001
 43
0.0000000001
 44
0.00000001
 40
0.0
 40
0.0
 40
0.0
 40
0.0
 40
1.427756587227063
 40
2.85556225489097
 40
3.586691062532425
 40
4.317852184593913
 40
5.06600365095751
 40
5.814180769034737
 40
6.581232378302992
 40
7.348312872276481
 40
8.133816928420304
 40
8.919343989658055
 40
9.720732398445243
 40
10.52212646389224
 40
12.15297562963378
 40
13.78384745199106
 40
13.78384745199106
 40
13.78384745199106
 40
13.78384745199106
 10
154.140476422918
 20
204.302304417654
 30
0.0
 10
154.1684507162543
 20
203.8256282356892
 30
0.0
 10
154.2244002787411
 20
202.8722594870637
 30
0.0
 10
154.5975733045996
 20
201.7228936353372
 30
0.0
 10
155.0124552441948
 20
200.8530714033037
 30
0.0
 10
155.3935096906087
 20
200.220871292068
 30
0.0
 10
155.8345607518633
 20
199.6223461553399
 30
0.0
 10
156.3359979138372
 20
199.0572744744039
 30
0.0
 10
156.8900777610404
 20
198.5345283722892
 30
0.0
 10
157.4968326713666
 20
198.0537742669858
 30
0.0
 10
158.147036228506
 20
197.6223749973789
 30
0.0
 10
158.8404371208096
 20
197.2404705725978
 30
0.0
 10
159.5671981243235
 20
196.9130109550594
 30
0.0
 10
160.5827941921408
 20
196.5508350743276
 30
0.0
 10
161.9081838598109
 20
196.2322410992036
 30
0.0
 10
162.9963763819075
 20
196.1851908851692
 30
0.0
 10
163.540476422918
 20
196.16166562208
 30
0.0
 11
154.140476422918
 21
204.302304417654
 31
0.0
 11
154.2846857436046
 21
202.8818493661213
 31
0.0
 11
154.7073657875309
 21
201.5180419700293
 31
0.0
 11
155.0229915543719
 21
200.8585499607308
 31
0.0
 11
155.3998376273449
 21
200.2319850198672
 31
0.0
 11
155.843361207434
 21
199.6294757238306
 31
0.0
 11
156.3396586575997
 21
199.0696026649257
 31
0.0
 11
156.8972815530754
 21
198.5428912840462
 31
0.0
 11
157.4982728918644
 21
198.0662133048659
 31
0.0
 11
158.1526015809094
 21
197.6316208639039
 31
0.0
 11
158.8404764229179
 21
197.2523044176536
 31
0.0
 11
159.5711125986803
 21
196.9230717323622
 31
0.0
 11
160.3254870756569
 21
196.6526062129697
 31
0.0
 11
161.9142308600602
 21
196.284418501351
 31
0.0
 11
163.540476422918
 21
196.16166562208
 31
0.0
  0
SPLINE
  5
3D0
330
1F
100
AcDbEntity
  8
Sichtbare_Kanten_TC_020513_DIN_
  6
Continuous
 62
     7
100
AcDbSpline
210
0.0
220
0.0
230
1.0
 70
     8
 71
     3
 72
    15
 73
    11
 74
     9
 42
0.000000001
 43
0.0000000001
 44
0.00000001
 40
0.0
 40
0.0
 40
0.0
 40
0.0
 40
1.37477086068727
 40
2.749522974134578
 40
3.398623140801737
 40
4.047672301778003
 40
4.653009486722912
 40
5.25846579169928
 40
6.183358856001166
 40
7.107509153571295
 40
7.107509153571295
 40
7.107509153571295
 40
7.107509153571295
 10
191.640152517087
 20
205.16166562208
 30
0.0
 10
192.098538684154
 20
205.1729410413148
 30
0.0
 10
193.0153047667909
 20
205.1954917404931
 30
0.0
 10
194.1402348138142
 20
205.3497972685547
 30
0.0
 10
195.0131931513766
 20
205.5288328491509
 30
0.0
 10
195.6276358396206
 20
205.6882736807906
 30
0.0
 10
196.2191656626312
 20
205.87523165322
 30
0.0
 10
196.8837121696883
 20
206.1303719022412
 30
0.0
 10
197.6283830536352
 20
206.4776770641571
 30
0.0
 10
198.1331395786023
 20
206.8332746967642
 30
0.0
 10
198.385416455892
 20
207.011002096803
 30
0.0
 11
191.640152517087
 21
205.16166562208
 31
0.0
 11
193.0136396233162
 21
205.2210632698227
 31
0.0
 11
194.3763136636929
 21
205.4028951389364
 31
0.0
 11
195.0119773653163
 21
205.5342826758671
 31
0.0
 11
195.6401525170874
 21
205.6975640069425
 31
0.0
 11
196.2170423652815
 21
205.8809521535718
 31
0.0
 11
196.7824533945795
 21
206.0974878496046
 31
0.0
 11
197.6145408820205
 21
206.5012917619613
 31
0.0
 11
198.385416455892
 21
207.011002096803
 31
0.0
  0
SPLINE
  5
3D1
330
1F
100
AcDbEntity
  8
Sichtbare_Kanten_TC_020513_DIN_
  6
Continuous
 62
     7
100
AcDbSpline
210
0.0
220
0.0
230
1.0
 70
     8
 71
     3
 72
    15
 73
    11
 74
     9
 42
0.000000001
 43
0.0000000001
 44
0.00000001
 40
0.0
 40
0.0
 40
0.0
 40
0.0
 40
1.374770860687283
 40
2.749522974134626
 40
3.398623140801778
 40
4.047672301777972
 40
4.653009486722828
 40
5.258465791699196
 40
6.183358856001096
 40
7.1075091535712
 40
7.1075091535712
 40
7.1075091535712
 40
7.1075091535712
 10
191.640152517087
 20
206.374101187378
 30
0.0
 10
192.098538684154
 20
206.3853766066129
 30
0.0
 10
193.0153047667909
 20
206.4079273057912
 30
0.0
 10
194.1402348138142
 20
206.5622328338536
 30
0.0
 10
195.0131931513766
 20
206.7412684144493
 30
0.0
 10
195.6276358396207
 20
206.9007092460887
 30
0.0
 10
196.2191656626312
 20
207.087667218518
 30
0.0
 10
196.8837121696883
 20
207.3428074675392
 30
0.0
 10
197.6283830536352
 20
207.6901126294551
 30
0.0
 10
198.1331395786024
 20
208.0457102620622
 30
0.0
 10
198.385416455892
 20
208.223437662101
 30
0.0
 11
191.640152517087
 21
206.374101187378
 31
0.0
 11
193.0136396233162
 21
206.433498835121
 31
0.0
 11
194.3763136636929
 21
206.615330704235
 31
0.0
 11
195.0119773653164
 21
206.7467182411655
 31
0.0
 11
195.6401525170874
 21
206.9099995722406
 31
0.0
 11
196.2170423652815
 21
207.0933877188698
 31
0.0
 11
196.7824533945795
 21
207.3099234149027
 31
0.0
 11
197.6145408820205
 21
207.7137273272593
 31
0.0
 11
198.385416455892
 21
208.223437662101
 31
0.0
  0
SPLINE
  5
3D2
330
1F
100
AcDbEntity
  8
Sichtbare_Kanten_TC_020513_DIN_
  6
Continuous
 62
     7
100
AcDbSpline
210
0.0
220
0.0
230
1.0
 70
     8
 71
     3
 72
    21
 73
    17
 74
    15
 42
0.000000001
 43
0.0000000001
 44
0.00000001
 40
0.0
 40
0.0
 40
0.0
 40
0.0
 40
0.5506518780397247
 40
1.101849947846338
 40
1.426439813825326
 40
1.750983480111912
 40
2.119872919247804
 40
2.48882382905499
 40
2.902484012919582
 40
3.316164179097609
 40
3.770206047459765
 40
4.22426091493934
 40
4.711063863699606
 40
5.1978725736062
 40
6.228936844170004
 40
7.260014806361965
 40
7.260014806361965
 40
7.260014806361965
 40
7.260014806361965
 10
199.640152517086
 20
204.704101187378
 30
0.0
 10
199.6605013397837
 20
204.5197968613625
 30
0.0
 10
199.7012191826412
 20
204.1510054014827
 30
0.0
 10
199.9490729124725
 20
203.7315122595393
 30
0.0
 10
200.2045197475891
 20
203.424084270245
 30
0.0
 10
200.4516408215764
 20
203.1901529684733
 30
0.0
 10
200.731380513754
 20
202.9723123754653
 30
0.0
 10
201.0541594865992
 20
202.7638123111045
 30
0.0
 10
201.4050298840299
 20
202.5735481096621
 30
0.0
 10
201.7941095896986
 20
202.3966239232111
 30
0.0
 10
202.2059951993294
 20
202.2393963774892
 30
0.0
 10
202.6494931871551
 20
202.0990242453024
 30
0.0
 10
203.1103891736266
 20
201.9794952619262
 30
0.0
 10
203.7650891114776
 20
201.8451869501131
 30
0.0
 10
204.6087906928018
 20
201.7294747524163
 30
0.0
 10
205.2963637205294
 20
201.7125590784943
 30
0.0
 10
205.640152517086
 20
201.704101187378
 30
0.0
 11
199.640152517086
 21
204.704101187378
 31
0.0
 11
199.7388456835994
 21
204.1623658665286
 31
0.0
 11
200.0019967923705
 21
203.6780407574013
 31
0.0
 11
200.2093878290829
 21
203.4283458662737
 31
0.0
 11
200.4440000943794
 21
203.2041011873783
 31
0.0
 11
200.7344993511761
 21
202.9767477184048
 31
0.0
 11
201.0438858583719
 21
202.7757383583187
 31
0.0
 11
201.4071630514037
 21
202.5778888483472
 31
0.0
 11
201.7834268589668
 21
202.4059678580214
 31
0.0
 11
202.2074276111733
 21
202.243556712195
 31
0.0
 11
202.6401525170858
 21
202.1060249760251
 31
0.0
 11
203.1113012273372
 21
201.9835668046065
 31
0.0
 11
203.5880316571317
 21
201.8850233250206
 31
0.0
 11
204.6100373798638
 21
201.7486494545481
 31
0.0
 11
205.640152517086
 21
201.704101187378
 31
0.0
  0
SPLINE
  5
3D3
330
1F
100
AcDbEntity
  8
Sichtbare_Kanten_TC_020513_DIN_
  6
Continuous
 62
     7
100
AcDbSpline
210
0.0
220
0.0
230
1.0
 70
     8
 71
     3
 72
    21
 73
    17
 74
    15
 42
0.000000001
 43
0.0000000001
 44
0.00000001
 40
0.0
 40
0.0
 40
0.0
 40
0.0
 40
0.5506518780397018
 40
1.101849947846313
 40
1.426439813825301
 40
1.750983480111928
 40
2.11987291924777
 40
2.488823829054988
 40
2.902484012919592
 40
3.316164179097593
 40
3.770206047459769
 40
4.224260914939346
 40
4.711063863699584
 40
5.197872573606189
 40
6.22893684417005
 40
7.260014806362017
 40
7.260014806362017
 40
7.260014806362017
 40
7.260014806362017
 10
199.640152517086
 20
203.49166562208
 30
0.0
 10
199.6605013397837
 20
203.3073612960645
 30
0.0
 10
199.7012191826412
 20
202.9385698361847
 30
0.0
 10
199.9490729124724
 20
202.5190766942412
 30
0.0
 10
200.204519747589
 20
202.2116487049469
 30
0.0
 10
200.4516408215764
 20
201.9777174031753
 30
0.0
 10
200.731380513754
 20
201.7598768101673
 30
0.0
 10
201.0541594865992
 20
201.5513767458066
 30
0.0
 10
201.40502988403
 20
201.3611125443641
 30
0.0
 10
201.7941095896986
 20
201.1841883579131
 30
0.0
 10
202.2059951993294
 20
201.0269608121912
 30
0.0
 10
202.649493187155
 20
200.8865886800043
 30
0.0
 10
203.1103891736265
 20
200.7670596966281
 30
0.0
 10
203.7650891114776
 20
200.6327513848151
 30
0.0
 10
204.6087906928017
 20
200.5170391871175
 30
0.0
 10
205.2963637205295
 20
200.5001235131962
 30
0.0
 10
205.640152517086
 20
200.49166562208
 30
0.0
 11
199.640152517086
 21
203.49166562208
 31
0.0
 11
199.7388456835995
 21
202.9499303012306
 31
0.0
 11
200.0019967923704
 21
202.4656051921033
 31
0.0
 11
200.2093878290829
 21
202.2159103009757
 31
0.0
 11
200.4440000943794
 21
201.9916656220803
 31
0.0
 11
200.7344993511761
 21
201.7643121531068
 31
0.0
 11
201.0438858583719
 21
201.5633027930207
 31
0.0
 11
201.4071630514037
 21
201.3654532830493
 31
0.0
 11
201.7834268589668
 21
201.1935322927234
 31
0.0
 11
202.2074276111733
 21
201.031121146897
 31
0.0
 11
202.6401525170858
 21
200.8935894107271
 31
0.0
 11
203.1113012273372
 21
200.7711312393085
 31
0.0
 11
203.5880316571317
 21
200.6725877597225
 31
0.0
 11
204.6100373798637
 21
200.5362138892496
 31
0.0
 11
205.640152517086
 21
200.49166562208
 31
0.0
  0
SPLINE
  5
3D4
330
1F
100
AcDbEntity
  8
Sichtbare_Kanten_TC_020513_DIN_
  6
Continuous
 62
     7
100
AcDbSpline
210
0.0
220
0.0
230
1.0
 70
     8
 71
     3
 72
    21
 73
    17
 74
    15
 42
0.000000001
 43
0.0000000001
 44
0.00000001
 40
0.0
 40
0.0
 40
0.0
 40
0.0
 40
1.387976019067753
 40
2.775932755775046
 40
3.457970258230912
 40
4.140002946498925
 40
4.808536615568338
 40
5.4770507058247
 40
6.129885168693534
 40
6.782695048822379
 40
7.419441532181708
 40
8.056166184278414
 40
8.678430968866921
 40
9.300668251796965
 40
10.51582201106452
 40
11.73093399971284
 40
11.73093399971284
 40
11.73093399971284
 40
11.73093399971284
 10
285.740476422918
 20
206.374101187378
 30
0.0
 10
286.2035402876213
 20
206.3941226878801
 30
0.0
 10
287.1296615828401
 20
206.4341654254135
 30
0.0
 10
288.2576527893909
 20
206.7053092332397
 30
0.0
 10
289.1219898683067
 20
207.0135440254447
 30
0.0
 10
289.7405098712367
 20
207.2922330616167
 30
0.0
 10
290.3306382901474
 20
207.6172581039731
 30
0.0
 10
290.8840030195485
 20
207.9844064185084
 30
0.0
 10
291.4003901771841
 20
208.3935588485239
 30
0.0
 10
291.8719474938555
 20
208.838449148155
 30
0.0
 10
292.2987025252136
 20
209.3193612169818
 30
0.0
 10
292.6740651304264
 20
209.8287443119962
 30
0.0
 10
292.9983667868016
 20
210.3667869597622
 30
0.0
 10
293.3514577991464
 20
211.1070611995868
 30
0.0
 10
293.669051862688
 20
212.0852449029492
 30
0.0
 10
293.7166685137052
 20
212.8966225608232
 30
0.0
 10
293.740476422918
 20
213.302304417654
 30
0.0
 11
285.740476422918
 21
206.374101187378
 31
0.0
 11
287.1245151998186
 21
206.4785717229279
 31
0.0
 11
288.4766375695238
 21
206.7919229668591
 31
0.0
 11
289.1186584009931
 21
207.0221063876187
 31
0.0
 11
289.7404764229182
 21
207.302304417654
 31
0.0
 11
290.3259018203721
 21
207.6251269251009
 31
0.0
 11
290.8827773004106
 21
207.9949928323022
 31
0.0
 11
291.3942592908694
 21
208.4006762188385
 31
0.0
 11
291.8688319678701
 21
208.8489412238424
 31
0.0
 11
292.2912127765221
 21
209.3254289335488
 31
0.0
 11
292.6686796531938
 21
209.8382028025162
 31
0.0
 11
292.9893997152983
 21
210.371449560698
 31
0.0
 11
293.2580173892055
 21
210.9327193558456
 31
0.0
 11
293.6177450861639
 21
212.0934065014558
 31
0.0
 11
293.740476422918
 21
213.302304417654
 31
0.0
  0
SPLINE
  5
3D5
330
1F
100
AcDbEntity
  8
Sichtbare_Kanten_TC_020513_DIN_
  6
Continuous
 62
     7
100
AcDbSpline
210
0.0
220
0.0
230
1.0
 70
     8
 71
     3
 72
    21
 73
    17
 74
    15
 42
0.000000001
 43
0.0000000001
 44
0.00000001
 40
0.0
 40
0.0
 40
0.0
 40
0.0
 40
1.63087182235759
 40
3.261720988099383
 40
4.06311505354619
 40
4.864503462333168
 40
5.650030523570819
 40
6.435534579714649
 40
7.202615073688241
 40
7.969666682956499
 40
8.71784380103389
 40
9.465995267397588
 40
10.1971563894591
 40
10.92828519710052
 40
12.35609086476444
 40
13.78384745199143
 40
13.78384745199143
 40
13.78384745199143
 40
13.78384745199143
 10
285.740476422918
 20
196.16166562208
 30
0.0
 10
286.2845764639285
 20
196.1851908851692
 30
0.0
 10
287.3727689860254
 20
196.2322410992035
 30
0.0
 10
288.6981586536956
 20
196.5508350743275
 30
0.0
 10
289.7137547215129
 20
196.9130109550593
 30
0.0
 10
290.4405157250266
 20
197.2404705725978
 30
0.0
 10
291.13391661733
 20
197.622374997379
 30
0.0
 10
291.7841201744695
 20
198.0537742669858
 30
0.0
 10
292.3908750847956
 20
198.5345283722893
 30
0.0
 10
292.944954931999
 20
199.057274474404
 30
0.0
 10
293.4463920939731
 20
199.6223461553399
 30
0.0
 10
293.887443155228
 20
200.2208712920679
 30
0.0
 10
294.2684976016419
 20
200.8530714033037
 30
0.0
 10
294.6833795412367
 20
201.7228936353372
 30
0.0
 10
295.0565525670954
 20
202.8722594870637
 30
0.0
 10
295.1125021295819
 20
203.8256282356891
 30
0.0
 10
295.140476422918
 20
204.302304417654
 30
0.0
 11
285.740476422918
 21
196.16166562208
 31
0.0
 11
287.3667219857761
 21
196.284418501351
 31
0.0
 11
288.9554657701797
 21
196.6526062129696
 31
0.0
 11
289.7098402471561
 21
196.9230717323622
 31
0.0
 11
290.4404764229182
 21
197.2523044176536
 31
0.0
 11
291.1283512649266
 21
197.631620863904
 31
0.0
 11
291.7826799539716
 21
198.0662133048659
 31
0.0
 11
292.3836712927607
 21
198.5428912840462
 31
0.0
 11
292.9412941882364
 21
199.0696026649257
 31
0.0
 11
293.4375916384025
 21
199.6294757238306
 31
0.0
 11
293.8811152184918
 21
200.2319850198671
 31
0.0
 11
294.2579612914647
 21
200.8585499607308
 31
0.0
 11
294.5735870583055
 21
201.5180419700293
 31
0.0
 11
294.9962671022319
 21
202.8818493661214
 31
0.0
 11
295.140476422918
 21
204.302304417654
 31
0.0
  0
SPLINE
  5
3D6
330
1F
100
AcDbEntity
  8
Sichtbare_Kanten_TC_020513_DIN_
  6
Continuous
 62
     7
100
AcDbSpline
210
0.0
220
0.0
230
1.0
 70
     8
 71
     3
 72
    21
 73
    17
 74
    15
 42
0.000000001
 43
0.0000000001
 44
0.00000001
 40
0.0
 40
0.0
 40
0.0
 40
0.0
 40
1.630871822357649
 40
3.261720988099387
 40
4.063115053546237
 40
4.864503462333152
 40
5.650030523570767
 40
6.435534579714614
 40
7.20261507368817
 40
7.969666682956469
 40
8.717843801033942
 40
9.46599526739773
 40
10.1971563894593
 40
10.92828519710074
 40
12.35609086476465
 40
13.7838474519916
 40
13.7838474519916
 40
13.7838474519916
 40
13.7838474519916
 10
285.740476422918
 20
205.16166562208
 30
0.0
 10
286.2845764639287
 20
205.1851908851693
 30
0.0
 10
287.3727689860255
 20
205.2322410992037
 30
0.0
 10
288.6981586536956
 20
205.5508350743275
 30
0.0
 10
289.7137547215129
 20
205.9130109550594
 30
0.0
 10
290.4405157250266
 20
206.2404705725978
 30
0.0
 10
291.13391661733
 20
206.6223749973791
 30
0.0
 10
291.7841201744694
 20
207.0537742669858
 30
0.0
 10
292.3908750847955
 20
207.5345283722892
 30
0.0
 10
292.9449549319991
 20
208.0572744744041
 30
0.0
 10
293.4463920939731
 20
208.6223461553399
 30
0.0
 10
293.8874431552283
 20
209.220871292068
 30
0.0
 10
294.268497601642
 20
209.8530714033037
 30
0.0
 10
294.6833795412375
 20
210.7228936353371
 30
0.0
 10
295.0565525670958
 20
211.8722594870637
 30
0.0
 10
295.1125021295821
 20
212.8256282356892
 30
0.0
 10
295.140476422918
 20
213.302304417654
 30
0.0
 11
285.740476422918
 21
205.16166562208
 31
0.0
 11
287.3667219857762
 21
205.284418501351
 31
0.0
 11
288.9554657701797
 21
205.6526062129697
 31
0.0
 11
289.7098402471561
 21
205.9230717323622
 31
0.0
 11
290.4404764229182
 21
206.2523044176536
 31
0.0
 11
291.1283512649265
 21
206.631620863904
 31
0.0
 11
291.7826799539716
 21
207.066213304866
 31
0.0
 11
292.3836712927607
 21
207.5428912840462
 31
0.0
 11
292.9412941882364
 21
208.0696026649256
 31
0.0
 11
293.4375916384025
 21
208.6294757238306
 31
0.0
 11
293.881115218492
 21
209.2319850198672
 31
0.0
 11
294.257961291465
 21
209.8585499607308
 31
0.0
 11
294.5735870583061
 21
210.5180419700292
 31
0.0
 11
294.9962671022323
 21
211.8818493661214
 31
0.0
 11
295.140476422918
 21
213.302304417654
 31
0.0
  0
SPLINE
  5
3D7
330
1F
100
AcDbEntity
  8
Sichtbare_Kanten_TC_020513_DIN_
  6
Continuous
 62
     7
100
AcDbSpline
210
0.0
220
0.0
230
1.0
 70
     8
 71
     3
 72
    21
 73
    17
 74
    15
 42
0.000000001
 43
0.0000000001
 44
0.00000001
 40
0.0
 40
0.0
 40
0.0
 40
0.0
 40
1.031077962191648
 40
2.062142232754917
 40
2.548950942661399
 40
3.035753891421809
 40
3.489808758901666
 40
3.943850627263975
 40
4.357530793441861
 40
4.771190977306329
 40
5.140141887113721
 40
5.509031326249825
 40
5.833574992536533
 40
6.158164858515539
 40
6.709362928322164
 40
7.260014806361855
 40
7.260014806361855
 40
7.260014806361855
 40
7.260014806361855
 10
243.640800328751
 20
201.704101187378
 30
0.0
 10
243.9845891253074
 20
201.7125590784944
 30
0.0
 10
244.6721621530348
 20
201.7294747524163
 30
0.0
 10
245.5158637343587
 20
201.8451869501132
 30
0.0
 10
246.1705636722095
 20
201.979495261926
 30
0.0
 10
246.6314596586811
 20
202.0990242453024
 30
0.0
 10
247.074957646507
 20
202.2393963774892
 30
0.0
 10
247.486843256138
 20
202.3966239232112
 30
0.0
 10
247.8759229618066
 20
202.5735481096621
 30
0.0
 10
248.2267933592372
 20
202.7638123111048
 30
0.0
 10
248.5495723320824
 20
202.9723123754653
 30
0.0
 10
248.8293120242605
 20
203.1901529684731
 30
0.0
 10
249.0764330982479
 20
203.424084270245
 30
0.0
 10
249.3318799333645
 20
203.7315122595392
 30
0.0
 10
249.5797336631959
 20
204.1510054014826
 30
0.0
 10
249.6204515060532
 20
204.5197968613625
 30
0.0
 10
249.640800328751
 20
204.704101187378
 30
0.0
 11
243.640800328751
 21
201.704101187378
 31
0.0
 11
244.6709154659729
 21
201.7486494545481
 31
0.0
 11
245.6929211887044
 21
201.8850233250206
 31
0.0
 11
246.1696516184988
 21
201.9835668046065
 31
0.0
 11
246.6408003287503
 21
202.1060249760251
 31
0.0
 11
247.0735252346632
 21
202.243556712195
 31
0.0
 11
247.4975259868698
 21
202.4059678580214
 31
0.0
 11
247.8737897944328
 21
202.5778888483472
 31
0.0
 11
248.2370669874645
 21
202.7757383583187
 31
0.0
 11
248.5464534946605
 21
202.9767477184049
 31
0.0
 11
248.8369527514575
 21
203.2041011873783
 31
0.0
 11
249.0715650167541
 21
203.4283458662737
 31
0.0
 11
249.2789560534666
 21
203.6780407574013
 31
0.0
 11
249.5421071622376
 21
204.1623658665286
 31
0.0
 11
249.640800328751
 21
204.704101187378
 31
0.0
  0
SPLINE
  5
3D8
330
1F
100
AcDbEntity
  8
Sichtbare_Kanten_TC_020513_DIN_
  6
Continuous
 62
     7
100
AcDbSpline
210
0.0
220
0.0
230
1.0
 70
     8
 71
     3
 72
    21
 73
    17
 74
    15
 42
0.000000001
 43
0.0000000001
 44
0.00000001
 40
0.0
 40
0.0
 40
0.0
 40
0.0
 40
1.031077962191625
 40
2.062142232754905
 40
2.548950942661347
 40
3.035753891421743
 40
3.489808758901677
 40
3.943850627264108
 40
4.357530793442029
 40
4.77119097730651
 40
5.140141887113902
 40
5.509031326250024
 40
5.833574992536712
 40
6.158164858515696
 40
6.709362928322371
 40
7.260014806362034
 40
7.260014806362034
 40
7.260014806362034
 40
7.260014806362034
 10
243.640800328751
 20
200.49166562208
 30
0.0
 10
243.9845891253074
 20
200.5001235131961
 30
0.0
 10
244.6721621530348
 20
200.5170391871175
 30
0.0
 10
245.5158637343586
 20
200.632751384815
 30
0.0
 10
246.1705636722096
 20
200.7670596966274
 30
0.0
 10
246.6314596586812
 20
200.8865886800038
 30
0.0
 10
247.074957646507
 20
201.0269608121906
 30
0.0
 10
247.4868432561379
 20
201.1841883579131
 30
0.0
 10
247.8759229618066
 20
201.361112544364
 30
0.0
 10
248.2267933592371
 20
201.5513767458067
 30
0.0
 10
248.5495723320826
 20
201.7598768101674
 30
0.0
 10
248.8293120242604
 20
201.9777174031752
 30
0.0
 10
249.0764330982479
 20
202.2116487049469
 30
0.0
 10
249.3318799333645
 20
202.5190766942413
 30
0.0
 10
249.5797336631959
 20
202.9385698361847
 30
0.0
 10
249.6204515060532
 20
203.3073612960645
 30
0.0
 10
249.640800328751
 20
203.49166562208
 30
0.0
 11
243.640800328751
 21
200.49166562208
 31
0.0
 11
244.6709154659729
 21
200.5362138892496
 31
0.0
 11
245.6929211887044
 21
200.6725877597221
 31
0.0
 11
246.1696516184988
 21
200.7711312393079
 31
0.0
 11
246.6408003287503
 21
200.8935894107264
 31
0.0
 11
247.0735252346632
 21
201.0311211468965
 31
0.0
 11
247.4975259868698
 21
201.1935322927233
 31
0.0
 11
247.8737897944328
 21
201.3654532830492
 31
0.0
 11
248.2370669874645
 21
201.5633027930207
 31
0.0
 11
248.5464534946605
 21
201.7643121531069
 31
0.0
 11
248.8369527514575
 21
201.9916656220803
 31
0.0
 11
249.0715650167541
 21
202.2159103009757
 31
0.0
 11
249.2789560534666
 21
202.4656051921033
 31
0.0
 11
249.5421071622376
 21
202.9499303012306
 31
0.0
 11
249.640800328751
 21
203.49166562208
 31
0.0
  0
SPLINE
  5
3D9
330
1F
100
AcDbEntity
  8
Sichtbare_Kanten_TC_020513_DIN_
  6
Continuous
 62
     7
100
AcDbSpline
210
0.0
220
0.0
230
1.0
 70
     8
 71
     3
 72
    15
 73
    11
 74
     9
 42
0.000000001
 43
0.0000000001
 44
0.00000001
 40
0.0
 40
0.0
 40
0.0
 40
0.0
 40
1.072176834544003
 40
2.144672836441964
 40
2.762253040017879
 40
3.379710630297299
 40
4.037806820784834
 40
4.695960788147659
 40
5.901651719272002
 40
7.107197465722812
 40
7.107197465722812
 40
7.107197465722812
 40
7.107197465722812
 10
250.895536389944
 20
208.223437662101
 30
0.0
 10
251.1900163908716
 20
208.0195382207823
 30
0.0
 10
251.7790640619376
 20
207.6116786533309
 30
0.0
 10
252.6288383300974
 20
207.2446274010423
 30
0.0
 10
253.3545854350921
 20
206.9903923704113
 30
0.0
 10
253.9616888184577
 20
206.8166450545827
 30
0.0
 10
254.5898089709643
 20
206.6707532116755
 30
0.0
 10
255.4173452608697
 20
206.5218981653178
 30
0.0
 10
256.434935122547
 20
206.4001006075515
 30
0.0
 10
257.2388613950844
 20
206.3827673080358
 30
0.0
 10
257.640800328749
 20
206.374101187378
 30
0.0
 11
250.895536389944
 21
208.223437662101
 31
0.0
 11
251.7966549833465
 21
207.642448463708
 31
0.0
 11
252.7734660745194
 21
207.1996304733224
 31
0.0
 11
253.3565309503269
 21
206.9960606806326
 31
0.0
 11
253.9498939277876
 21
206.8252559547946
 31
0.0
 11
254.5908785957685
 21
206.6761611783858
 31
0.0
 11
255.2384681043598
 21
206.5587113028562
 31
0.0
 11
256.4361166628667
 21
206.4196841508407
 31
0.0
 11
257.640800328749
 21
206.374101187378
 31
0.0
  0
SPLINE
  5
3DA
330
1F
100
AcDbEntity
  8
Sichtbare_Kanten_TC_020513_DIN_
  6
Continuous
 62
     7
100
AcDbSpline
210
0.0
220
0.0
230
1.0
 70
     8
 71
     3
 72
    15
 73
    11
 74
     9
 42
0.000000001
 43
0.0000000001
 44
0.00000001
 40
0.0
 40
0.0
 40
0.0
 40
0.0
 40
1.072176834543979
 40
2.144672836441954
 40
2.762253040017888
 40
3.379710630297292
 40
4.037806820784834
 40
4.695960788147659
 40
5.901651719271999
 40
7.107197465722809
 40
7.107197465722809
 40
7.107197465722809
 40
7.107197465722809
 10
250.895536389944
 20
207.011002096803
 30
0.0
 10
251.1900163908715
 20
206.8071026554842
 30
0.0
 10
251.7790640619378
 20
206.399243088033
 30
0.0
 10
252.6288383300972
 20
206.0321918357443
 30
0.0
 10
253.3545854350922
 20
205.7779568051132
 30
0.0
 10
253.9616888184576
 20
205.6042094892848
 30
0.0
 10
254.5898089709644
 20
205.4583176463775
 30
0.0
 10
255.4173452608696
 20
205.3094626000198
 30
0.0
 10
256.434935122547
 20
205.1876650422536
 30
0.0
 10
257.2388613950844
 20
205.1703317427378
 30
0.0
 10
257.640800328749
 20
205.16166562208
 30
0.0
 11
250.895536389944
 21
207.011002096803
 31
0.0
 11
251.7966549833465
 21
206.43001289841
 31
0.0
 11
252.7734660745194
 21
205.9871949080244
 31
0.0
 11
253.3565309503269
 21
205.7836251153345
 31
0.0
 11
253.9498939277876
 21
205.6128203894966
 31
0.0
 11
254.5908785957685
 21
205.4637256130878
 31
0.0
 11
255.2384681043598
 21
205.3462757375582
 31
0.0
 11
256.4361166628667
 21
205.2072485855428
 31
0.0
 11
257.640800328749
 21
205.16166562208
 31
0.0
  0
LWPOLYLINE
  5
3DB
330
1F
100
AcDbEntity
  8
Sichtbare_Kanten_TC_020513_DIN_
  6
Continuous
 62
     7
100
AcDbPolyline
 90
       25
 70
     0
 43
0.5
 10
482.66893489658
 20
208.223437743801
 10
482.761231496922
 20
208.276104407924
 10
482.867885664098
 20
208.335300164837
 10
482.988754346959
 20
208.400169091839
 10
483.123699262731
 20
208.469851689953
 10
483.272582128636
 20
208.543490844387
 10
483.435259893529
 20
208.620228248257
 10
483.611599043004
 20
208.699207978863
 10
483.798886373631
 20
208.778465467113
 10
483.989840582006
 20
208.854408937115
 10
484.183922842137
 20
208.92670221867
 10
484.381013944738
 20
208.99520583691
 10
484.581008985631
 20
209.059777932781
 10
484.7837935239
 20
209.120277839321
 10
484.989257886998
 20
209.176564889568
 10
485.197287634008
 20
209.228498416561
 10
485.407739713781
 20
209.27593060078
 10
485.620003774755
 20
209.318642097133
 10
485.833784177892
 20
209.356543498653
 10
486.048928335302
 20
209.389582353252
 10
486.265283659093
 20
209.417706208843
 10
486.482707098119
 20
209.440862613338
 10
486.701041296117
 20
209.459000306743
 10
486.92014320194
 20
209.472065644878
 10
487.139850690953
 20
209.480007367748
  0
LWPOLYLINE
  5
3DC
330
1F
100
AcDbEntity
  8
Sichtbare_Kanten_TC_020513_DIN_
  6
Continuous
 62
     7
100
AcDbPolyline
 90
       25
 70
     0
 43
0.5
 10
487.173968389623
 20
208.080422359127
 10
486.983400419347
 20
208.073479610103
 10
486.793633535497
 20
208.062010484356
 10
486.604806020848
 20
208.046086507458
 10
486.417051389806
 20
208.025782781261
 10
486.230503156774
 20
208.001173215526
 10
486.045294836156
 20
207.972329335827
 10
485.861564710729
 20
207.939326244015
 10
485.679436758153
 20
207.902236657757
 10
485.499054029576
 20
207.861135678905
 10
485.320545271032
 20
207.816094833034
 10
485.14406783878
 20
207.767196374554
 10
484.970246389501
 20
207.7147192532
 10
484.799367025487
 20
207.658889966625
 10
484.631501272313
 20
207.59986587109
 10
484.466734960668
 20
207.53780551495
 10
484.305130079381
 20
207.472865062374
 10
484.148017004125
 20
207.405772882122
 10
484.001546934239
 20
207.339684444088
 10
483.866640165441
 20
207.275654750484
 10
483.743387296788
 20
207.214385944027
 10
483.631888464085
 20
207.156583743709
 10
483.532248571507
 20
207.102950292248
 10
483.444562986485
 20
207.05418892445
 10
483.368936613194
 20
207.011001783031
  0
LWPOLYLINE
  5
3DD
330
1F
100
AcDbEntity
  8
Sichtbare_Kanten_TC_020513_DIN_
  6
Continuous
 62
     7
100
AcDbPolyline
 90
       25
 70
     0
 43
0.5
 10
198.38541718067
 20
208.223437743801
 10
198.44646902622
 20
208.276104407924
 10
198.514203744543
 20
208.335300164837
 10
198.587469773901
 20
208.400169091839
 10
198.665113168371
 20
208.469851689953
 10
198.745982366217
 20
208.543490844387
 10
198.8289258057
 20
208.620228248257
 10
198.912789540899
 20
208.699207978863
 10
198.995375352514
 20
208.778465467113
 10
199.07315702976
 20
208.854408937115
 10
199.145950990332
 20
208.92670221867
 10
199.213764386786
 20
208.99520583691
 10
199.276604371679
 20
209.059777932781
 10
199.334473329199
 20
209.120277839321
 10
199.387383180273
 20
209.176564889568
 10
199.435336309088
 20
209.228498416561
 10
199.478332715643
 20
209.27593060078
 10
199.516284185064
 20
209.318642097133
 10
199.549164491308
 20
209.356543498653
 10
199.576980786932
 20
209.389582353252
 10
199.59973068775
 20
209.417706208843
 10
199.617421346319
 20
209.440862613338
 10
199.63005276264
 20
209.459000306743
 10
199.637627320898
 20
209.472065644878
 10
199.640152173651
 20
209.480007367748
  0
LWPOLYLINE
  5
3DE
330
1F
100
AcDbEntity
  8
Sichtbare_Kanten_TC_020513_DIN_
  6
Continuous
 62
     7
100
AcDbPolyline
 90
       25
 70
     0
 43
0.5
 10
199.640152173651
 20
208.080422359127
 10
199.637539106024
 20
208.073479610103
 10
199.629702287329
 20
208.062010484356
 10
199.616660791052
 20
208.046086507458
 10
199.598424153936
 20
208.025782781261
 10
199.575006681097
 20
208.001173215526
 10
199.546422677649
 20
207.972329335827
 10
199.51268406452
 20
207.939326244015
 10
199.473807531012
 20
207.902236657757
 10
199.429802613867
 20
207.861135678905
 10
199.380688386572
 20
207.816094833034
 10
199.326479154242
 20
207.767196374554
 10
199.267329888952
 20
207.7147192532
 10
199.203335958136
 20
207.658889966625
 10
199.134528356207
 20
207.59986587109
 10
199.060938077581
 20
207.53780551495
 10
198.982605653418
 20
207.472865062374
 10
198.900229650152
 20
207.405772882122
 10
198.817538934362
 20
207.339684444088
 10
198.736042695654
 20
207.275654750484
 10
198.656851964605
 20
207.214385944027
 10
198.581082540167
 20
207.156583743709
 10
198.509845452917
 20
207.102950292248
 10
198.444251733435
 20
207.05418892445
 10
198.38541718067
 20
207.011001783031
  0
LWPOLYLINE
  5
3DF
330
1F
100
AcDbEntity
  8
Sichtbare_Kanten_TC_020513_DIN_
  6
Continuous
 62
     7
100
AcDbPolyline
 90
       25
 70
     0
 43
0.5
 10
249.640800672186
 20
209.480007367748
 10
249.64331360401
 20
209.472051339763
 10
249.650857167852
 20
209.458958583492
 10
249.6634337479
 20
209.440798240322
 10
249.68105049671
 20
209.417635875362
 10
249.703707414282
 20
209.389541822094
 10
249.731406884802
 20
209.356581645626
 10
249.764158445013
 20
209.318824487346
 10
249.801962094915
 20
209.27633829655
 10
249.844820218695
 20
209.229191022533
 10
249.892737584723
 20
209.177449422497
 10
249.945721345556
 20
209.121181445736
 10
250.003721433294
 20
209.060555177349
 10
250.066671090735
 20
208.995847182888
 10
250.134572702063
 20
208.927211242336
 10
250.207433419836
 20
208.854803519863
 10
250.285262780798
 20
208.778778987545
 10
250.367879586828
 20
208.699476199764
 10
250.451786237371
 20
208.620453553814
 10
250.534772592199
 20
208.543672042507
 10
250.615687089575
 20
208.469989972729
 10
250.693373399389
 20
208.400265651363
 10
250.766679959906
 20
208.335359769481
 10
250.834452825201
 20
208.276130633968
 10
250.895535665167
 20
208.223437743801
  0
LWPOLYLINE
  5
3E0
330
1F
100
AcDbEntity
  8
Sichtbare_Kanten_TC_020513_DIN_
  6
Continuous
 62
     7
100
AcDbPolyline
 90
       25
 70
     0
 43
0.5
 10
250.895535665167
 20
207.011001783031
 10
250.836491304052
 20
207.054339128154
 10
250.77064247669
 20
207.103290038723
 10
250.699114518774
 20
207.157141643184
 10
250.623035150183
 20
207.215184646267
 10
250.54352970661
 20
207.276708560604
 10
250.461725907934
 20
207.341001706737
 10
250.378749089849
 20
207.407355981487
 10
250.296416001928
 20
207.474449353832
 10
250.218417363775
 20
207.539115625042
 10
250.145179944647
 20
207.600876765865
 10
250.076727586401
 20
207.659586148876
 10
250.013096051825
 20
207.715097146648
 10
249.954313951147
 20
207.767264323848
 10
249.900412278784
 20
207.815942245144
 10
249.851419644964
 20
207.860984283108
 10
249.807374196661
 20
207.902240234035
 10
249.768418985022
 20
207.93946452679
 10
249.734623151434
 20
207.972533183712
 10
249.705998616827
 20
208.001387792248
 10
249.682554917944
 20
208.025971131939
 10
249.664301591528
 20
208.046223598141
 10
249.651252942694
 20
208.062087970394
 10
249.643413739813
 20
208.07350702824
 10
249.640800672186
 20
208.080422359127
  0
LWPOLYLINE
  5
3E1
330
1F
100
AcDbEntity
  8
Sichtbare_Kanten_TC_020513_DIN_
  6
Continuous
 62
     7
100
AcDbPolyline
 90
       25
 70
     0
 43
0.5
 10
299.390475469244
 20
221.610905604976
 10
299.389726834906
 20
221.667880492824
 10
299.387485700262
 20
221.724724250454
 10
299.383766370428
 20
221.781482177395
 10
299.378568845404
 20
221.838199573177
 10
299.371907430304
 20
221.89491696896
 10
299.363782125128
 20
221.951677280086
 10
299.354192929876
 20
222.008525806087
 10
299.343139844549
 20
222.065503078121
 10
299.330618100775
 20
222.122652011532
 10
299.316622930182
 20
222.180015521663
 10
299.301144796026
 20
222.237636523861
 10
299.284178929937
 20
222.295557933468
 10
299.2657110268
 20
222.353825050014
 10
299.245722013128
 20
222.412476020473
 10
299.224202352179
 20
222.471563296932
 10
299.201123433722
 20
222.531125026363
 10
299.176475721014
 20
222.591213660854
 10
299.150225835455
 20
222.651872115749
 10
299.122349935186
 20
222.713152843136
 10
299.092819409979
 20
222.775101142544
 10
299.061600881231
 20
222.83776946606
 10
299.028660970343
 20
222.901212649959
 10
298.99396153034
 20
222.965480762142
 10
298.957464414251
 20
223.030633407253
  0
LWPOLYLINE
  5
3E2
330
1F
100
AcDbEntity
  8
Sichtbare_Kanten_TC_020513_DIN_
  6
Continuous
 62
     7
100
AcDbPolyline
 90
       25
 70
     0
 43
0.5
 10
299.390475469244
 20
217.280778365749
 10
299.389726834906
 20
217.394728141445
 10
299.387485700262
 20
217.508415656704
 10
299.383766370428
 20
217.621933894771
 10
299.378568845404
 20
217.73536630215
 10
299.371907430304
 20
217.848801093715
 10
299.363782125128
 20
217.962324100155
 10
299.354192929876
 20
218.076018767971
 10
299.343139844549
 20
218.189975696224
 10
299.330618100775
 20
218.304273563045
 10
299.316622930182
 20
218.419000583309
 10
299.301144796026
 20
218.534242587704
 10
299.284178929937
 20
218.650085406917
 10
299.2657110268
 20
218.766614871639
 10
299.245722013128
 20
218.883921580929
 10
299.224202352179
 20
219.002091365475
 10
299.201123433722
 20
219.121219592708
 10
299.176475721014
 20
219.241394477505
 10
299.150225835455
 20
219.36271377148
 10
299.122349935186
 20
219.485272842068
 10
299.092819409979
 20
219.609169440883
 10
299.061600881231
 20
219.734506087917
 10
299.028660970343
 20
219.861390071529
 10
298.99396153034
 20
219.98992868008
 10
298.957464414251
 20
220.120231586117
  0
LWPOLYLINE
  5
3E3
330
1F
100
AcDbEntity
  8
Sichtbare_Kanten_TC_020513_DIN_
  6
Continuous
 62
     7
100
AcDbPolyline
 90
       25
 70
     0
 43
0.5
 10
298.957464414251
 20
220.1911778027
 10
298.99396153034
 20
220.256330447811
 10
299.028660970343
 20
220.320598559994
 10
299.061600881231
 20
220.384041743892
 10
299.092819409979
 20
220.446710067409
 10
299.122349935186
 20
220.508658366817
 10
299.150225835455
 20
220.569939094204
 10
299.176475721014
 20
220.630597549099
 10
299.201123433722
 20
220.69068618359
 10
299.224202352179
 20
220.750247913021
 10
299.245722013128
 20
220.80933518948
 10
299.2657110268
 20
220.867986159939
 10
299.284178929937
 20
220.926253276485
 10
299.301144796026
 20
220.984174686092
 10
299.316622930182
 20
221.041795688289
 10
299.330618100775
 20
221.099159198421
 10
299.343139844549
 20
221.156308131832
 10
299.354192929876
 20
221.213285403866
 10
299.363782125128
 20
221.270133929867
 10
299.371907430304
 20
221.326894240993
 10
299.378568845404
 20
221.383611636776
 10
299.383766370428
 20
221.440329032558
 10
299.387485700262
 20
221.497086959499
 10
299.389726834906
 20
221.553930717128
 10
299.390475469244
 20
221.610905604976
  0
LWPOLYLINE
  5
3E4
330
1F
100
AcDbEntity
  8
Sichtbare_Kanten_TC_020513_DIN_
  6
Continuous
 62
     7
100
AcDbPolyline
 90
       25
 70
     0
 43
0.5
 10
299.390475469244
 20
212.950651126522
 10
299.389726834906
 20
213.00762601437
 10
299.387485700262
 20
213.064469771999
 10
299.383766370428
 20
213.12122769894
 10
299.378568845404
 20
213.177945094722
 10
299.371907430304
 20
213.234662490505
 10
299.363782125128
 20
213.291422801632
 10
299.354192929876
 20
213.348271327633
 10
299.343139844549
 20
213.405248599666
 10
299.330618100775
 20
213.462399917263
 10
299.316622930182
 20
213.519763427395
 10
299.301144796026
 20
213.577384429592
 10
299.284178929937
 20
213.635305839199
 10
299.2657110268
 20
213.69357057156
 10
299.245722013128
 20
213.752223926205
 10
299.224202352179
 20
213.811308818477
 10
299.201123433722
 20
213.870872932094
 10
299.176475721014
 20
213.930959182399
 10
299.150225835455
 20
213.99162002148
 10
299.122349935186
 20
214.052898364681
 10
299.092819409979
 20
214.114846664089
 10
299.061600881231
 20
214.177514987606
 10
299.028660970343
 20
214.240958171505
 10
298.99396153034
 20
214.305226283687
 10
298.957464414251
 20
214.370378928798
  0
LWPOLYLINE
  5
3E5
330
1F
100
AcDbEntity
  8
Sichtbare_Kanten_TC_020513_DIN_
  6
Continuous
 62
     7
100
AcDbPolyline
 90
       25
 70
     0
 43
0.5
 10
298.957464414251
 20
214.441325145382
 10
298.99396153034
 20
214.571628051418
 10
299.028660970343
 20
214.700166659969
 10
299.061600881231
 20
214.827050643581
 10
299.092819409979
 20
214.952387290615
 10
299.122349935186
 20
215.076286273617
 10
299.150225835455
 20
215.198842960018
 10
299.176475721014
 20
215.320162253994
 10
299.201123433722
 20
215.44033713879
 10
299.224202352179
 20
215.559465366024
 10
299.245722013128
 20
215.67763515057
 10
299.2657110268
 20
215.794941859859
 10
299.284178929937
 20
215.911471324581
 10
299.301144796026
 20
216.027314143795
 10
299.316622930182
 20
216.142556148189
 10
299.330618100775
 20
216.257283168453
 10
299.343139844549
 20
216.37158341946
 10
299.354192929876
 20
216.485537963528
 10
299.363782125128
 20
216.599232631344
 10
299.371907430304
 20
216.712755637783
 10
299.378568845404
 20
216.826190429348
 10
299.383766370428
 20
216.939625220913
 10
299.387485700262
 20
217.053141074795
 10
299.389726834906
 20
217.166828590053
 10
299.390475469244
 20
217.280778365749
  0
LWPOLYLINE
  5
3E6
330
1F
100
AcDbEntity
  8
Sichtbare_Kanten_TC_020513_DIN_
  6
Continuous
 62
     7
100
AcDbPolyline
 90
       25
 70
     0
 43
0.5
 10
298.957464414251
 20
211.530923324245
 10
298.99396153034
 20
211.596075969356
 10
299.028660970343
 20
211.660346465725
 10
299.061600881231
 20
211.723787265438
 10
299.092819409979
 20
211.786455588955
 10
299.122349935186
 20
211.848403888363
 10
299.150225835455
 20
211.909684615749
 10
299.176475721014
 20
211.970343070644
 10
299.201123433722
 20
212.030431705135
 10
299.224202352179
 20
212.089995818752
 10
299.245722013128
 20
212.149080711025
 10
299.2657110268
 20
212.20773406567
 10
299.284178929937
 20
212.265998798031
 10
299.301144796026
 20
212.323920207638
 10
299.316622930182
 20
212.381541209835
 10
299.330618100775
 20
212.438904719967
 10
299.343139844549
 20
212.496053653377
 10
299.354192929876
 20
212.553030925411
 10
299.363782125128
 20
212.609879451412
 10
299.371907430304
 20
212.666639762539
 10
299.378568845404
 20
212.723357158321
 10
299.383766370428
 20
212.780074554104
 10
299.387485700262
 20
212.836832481045
 10
299.389726834906
 20
212.893676238674
 10
299.390475469244
 20
212.950651126522
  0
LWPOLYLINE
  5
3E7
330
1F
100
AcDbEntity
  8
Sichtbare_Kanten_TC_020513_DIN_
  6
Continuous
 62
     7
100
AcDbPolyline
 90
       25
 70
     0
 43
0.5
 10
150.323488431585
 20
223.030633407253
 10
150.286991315496
 20
222.965480762142
 10
150.252291875494
 20
222.901212649959
 10
150.219351964605
 20
222.83776946606
 10
150.188133435858
 20
222.775101142544
 10
150.15860291065
 20
222.713152843136
 10
150.130727010382
 20
222.651872115749
 10
150.104477124823
 20
222.591213660854
 10
150.079829412115
 20
222.531125026363
 10
150.056750493658
 20
222.471563296932
 10
150.035230832708
 20
222.412476020473
 10
150.015241819036
 20
222.353825050014
 10
149.996773915899
 20
222.295557933468
 10
149.97980804981
 20
222.237636523861
 10
149.964329915655
 20
222.180015521663
 10
149.950334745062
 20
222.122652011532
 10
149.937813001287
 20
222.065503078121
 10
149.92675991596
 20
222.008525806087
 10
149.917170720709
 20
221.951677280086
 10
149.909045415533
 20
221.89491696896
 10
149.902384000433
 20
221.838199573177
 10
149.897186475408
 20
221.781482177395
 10
149.893467145575
 20
221.724724250454
 10
149.891226010931
 20
221.667880492824
 10
149.890477376593
 20
221.610905604976
  0
LWPOLYLINE
  5
3E8
330
1F
100
AcDbEntity
  8
Sichtbare_Kanten_TC_020513_DIN_
  6
Continuous
 62
     7
100
AcDbPolyline
 90
       25
 70
     0
 43
0.5
 10
149.890477376593
 20
212.950651126522
 10
149.891226010931
 20
212.893676238674
 10
149.893467145575
 20
212.836832481045
 10
149.897186475408
 20
212.780074554104
 10
149.902384000433
 20
212.723357158321
 10
149.909045415533
 20
212.666639762539
 10
149.917170720709
 20
212.609879451412
 10
149.92675991596
 20
212.553030925411
 10
149.937813001287
 20
212.496053653377
 10
149.950334745062
 20
212.438904719967
 10
149.964329915655
 20
212.381541209835
 10
149.97980804981
 20
212.323920207638
 10
149.996773915899
 20
212.265998798031
 10
150.015241819036
 20
212.20773406567
 10
150.035230832708
 20
212.149080711025
 10
150.056750493658
 20
212.089995818752
 10
150.079829412115
 20
212.030431705135
 10
150.104477124823
 20
211.970343070644
 10
150.130727010382
 20
211.909684615749
 10
150.15860291065
 20
211.848403888363
 10
150.188133435858
 20
211.786455588955
 10
150.219351964605
 20
211.723787265438
 10
150.252291875494
 20
211.660346465725
 10
150.286991315496
 20
211.596075969356
 10
150.323488431585
 20
211.530923324245
  0
LWPOLYLINE
  5
3E9
330
1F
100
AcDbEntity
  8
Sichtbare_Kanten_TC_020513_DIN_
  6
Continuous
 62
     7
100
AcDbPolyline
 90
       25
 70
     0
 43
0.5
 10
149.890477376593
 20
217.280778365749
 10
149.891226010931
 20
217.166828590053
 10
149.893467145575
 20
217.053141074795
 10
149.897186475408
 20
216.939625220913
 10
149.902384000433
 20
216.826190429348
 10
149.909045415533
 20
216.712755637783
 10
149.917170720709
 20
216.599232631344
 10
149.92675991596
 20
216.485537963528
 10
149.937813001287
 20
216.37158341946
 10
149.950334745062
 20
216.257283168453
 10
149.964329915655
 20
216.142556148189
 10
149.97980804981
 20
216.027314143795
 10
149.996773915899
 20
215.911471324581
 10
150.015241819036
 20
215.794941859859
 10
150.035230832708
 20
215.67763515057
 10
150.056750493658
 20
215.559465366024
 10
150.079829412115
 20
215.44033713879
 10
150.104477124823
 20
215.320162253994
 10
150.130727010382
 20
215.198842960018
 10
150.15860291065
 20
215.076286273617
 10
150.188133435858
 20
214.952387290615
 10
150.219351964605
 20
214.827050643581
 10
150.252291875494
 20
214.700166659969
 10
150.286991315496
 20
214.571628051418
 10
150.323488431585
 20
214.441325145382
  0
LWPOLYLINE
  5
3EA
330
1F
100
AcDbEntity
  8
Sichtbare_Kanten_TC_020513_DIN_
  6
Continuous
 62
     7
100
AcDbPolyline
 90
       25
 70
     0
 43
0.5
 10
150.323488431585
 20
214.370378928798
 10
150.286991315496
 20
214.305226283687
 10
150.252291875494
 20
214.240958171505
 10
150.219351964605
 20
214.177514987606
 10
150.188133435858
 20
214.114846664089
 10
150.15860291065
 20
214.052898364681
 10
150.130727010382
 20
213.99162002148
 10
150.104477124823
 20
213.930959182399
 10
150.079829412115
 20
213.870872932094
 10
150.056750493658
 20
213.811308818477
 10
150.035230832708
 20
213.752223926205
 10
150.015241819036
 20
213.69357057156
 10
149.996773915899
 20
213.635305839199
 10
149.97980804981
 20
213.577384429592
 10
149.964329915655
 20
213.519763427395
 10
149.950334745062
 20
213.462399917263
 10
149.937813001287
 20
213.405248599666
 10
149.92675991596
 20
213.348271327633
 10
149.917170720709
 20
213.291422801632
 10
149.909045415533
 20
213.234662490505
 10
149.902384000433
 20
213.177945094722
 10
149.897186475408
 20
213.12122769894
 10
149.893467145575
 20
213.064469771999
 10
149.891226010931
 20
213.00762601437
 10
149.890477376593
 20
212.950651126522
  0
LWPOLYLINE
  5
3EB
330
1F
100
AcDbEntity
  8
Sichtbare_Kanten_TC_020513_DIN_
  6
Continuous
 62
     7
100
AcDbPolyline
 90
       25
 70
     0
 43
0.5
 10
150.323488431585
 20
220.120231586117
 10
150.286991315496
 20
219.98992868008
 10
150.252291875494
 20
219.861390071529
 10
150.219351964605
 20
219.734506087917
 10
150.188133435858
 20
219.609169440883
 10
150.15860291065
 20
219.485272842068
 10
150.130727010382
 20
219.36271377148
 10
150.104477124823
 20
219.241394477505
 10
150.079829412115
 20
219.121219592708
 10
150.056750493658
 20
219.002091365475
 10
150.035230832708
 20
218.883921580929
 10
150.015241819036
 20
218.766614871639
 10
149.996773915899
 20
218.650085406917
 10
149.97980804981
 20
218.534242587704
 10
149.964329915655
 20
218.419000583309
 10
149.950334745062
 20
218.304273563045
 10
149.937813001287
 20
218.189975696224
 10
149.92675991596
 20
218.076018767971
 10
149.917170720709
 20
217.962324100155
 10
149.909045415533
 20
217.848801093715
 10
149.902384000433
 20
217.73536630215
 10
149.897186475408
 20
217.621933894771
 10
149.893467145575
 20
217.508415656704
 10
149.891226010931
 20
217.394728141445
 10
149.890477376593
 20
217.280778365749
  0
LWPOLYLINE
  5
3EC
330
1F
100
AcDbEntity
  8
Sichtbare_Kanten_TC_020513_DIN_
  6
Continuous
 62
     7
100
AcDbPolyline
 90
       25
 70
     0
 43
0.5
 10
149.890477376593
 20
221.610905604976
 10
149.891226010931
 20
221.553930717128
 10
149.893467145575
 20
221.497086959499
 10
149.897186475408
 20
221.440329032558
 10
149.902384000433
 20
221.383611636776
 10
149.909045415533
 20
221.326894240993
 10
149.917170720709
 20
221.270133929867
 10
149.92675991596
 20
221.213285403866
 10
149.937813001287
 20
221.156308131832
 10
149.950334745062
 20
221.099159198421
 10
149.964329915655
 20
221.041795688289
 10
149.97980804981
 20
220.984174686092
 10
149.996773915899
 20
220.926253276485
 10
150.015241819036
 20
220.867986159939
 10
150.035230832708
 20
220.80933518948
 10
150.056750493658
 20
220.750247913021
 10
150.079829412115
 20
220.69068618359
 10
150.104477124823
 20
220.630597549099
 10
150.130727010382
 20
220.569939094204
 10
150.15860291065
 20
220.508658366817
 10
150.188133435858
 20
220.446710067409
 10
150.219351964605
 20
220.384041743892
 10
150.252291875494
 20
220.320598559994
 10
150.286991315496
 20
220.256330447811
 10
150.323488431585
 20
220.1911778027
  0
MTEXT
  5
3ED
330
1F
100
AcDbEntity
  8
Symbole_TC_020513_DIN_
 62
     7
100
AcDbMText
 10
78.980366825301
 20
366.378983743009
 30
0.0
 40
6.99999988079071
 41
0.0
 71
     1
 72
     1
  1
Panel cut\Pout
  7
CONVERTER_11
 73
     1
 44
1.0
  0
TEXT
  5
3EF
330
1F
100
AcDbEntity
  8
Symbole_ISO_
 62
     7
100
AcDbText
 10
276.0
 20
38.4999999403953
 30
0.0
 40
8.00000011920929
  1
CHI 48 L
 41
1.91999988555908
  7
CONVERTER_14
100
AcDbText
  0
TEXT
  5
3F0
330
1F
100
AcDbEntity
  8
Symbole_ISO_
 62
     7
100
AcDbText
 10
502.610914283349
 20
24.9999999999999
 30
0.0
 40
10.0
  1
1:2
 41
1.43999996185303
  7
CONVERTER_13
100
AcDbText
  0
TEXT
  5
3F1
330
1F
100
AcDbEntity
  8
Symbole_ISO_
 62
     7
100
AcDbText
 10
276.0
 20
23.4999999403953
 30
0.0
 40
8.00000011920929
  1
bulkhead h. 1 lev.
 41
1.91999988555908
  7
CONVERTER_14
100
AcDbText
  0
DIMENSION
  5
3FC
330
1F
100
AcDbEntity
  8
Bemaßungen_TC_020513_DIN_
100
AcDbDimension
  2
*D4
 10
561.018408574621
 20
253.2807785564837
 30
0.0
 11
551.6667304034034
 21
223.800273781586
 31
0.0
 70
    32
  1
64
 71
     5
 42
-1.0
 53
90.0
  3
ME10_DIM_10
100
AcDbAlignedDimension
 13
445.157712057208
 23
189.580778556484
 33
0.0
 14
423.157712057212
 24
253.280778556484
 34
0.0
 50
90.0
100
AcDbRotatedDimension
  0
DIMENSION
  5
407
330
1F
100
AcDbEntity
  8
Bemaßungen_TC_020513_DIN_
100
AcDbDimension
  2
*D5
 10
156.890476422918
 20
170.7334517525771
 30
0.0
 11
224.640476422918
 21
174.89414826999
 31
0.0
 70
    32
  1
135,5
 71
     5
 42
-1.0
 53
0.00013888888889
  3
ME10_DIM_11
100
AcDbAlignedDimension
 13
292.390476422918
 23
202.080778556484
 33
0.0
 14
156.890476422918
 24
202.080778556484
 34
0.0
100
AcDbRotatedDimension
  0
DIMENSION
  5
412
330
1F
100
AcDbEntity
  8
Bemaßungen_TC_020513_DIN_
100
AcDbDimension
  2
*D6
 10
364.1577120572119
 20
154.679906862923
 30
0.0
 11
403.586599452292
 21
158.3182153206345
 31
0.0
 70
    32
  1
93
 71
     5
 42
-1.0
 53
0.00013888888889
  3
ME10_DIM_12
100
AcDbAlignedDimension
 13
457.157712057211
 23
193.080778556484
 33
0.0
 14
364.157712057212
 24
189.580778556484
 34
0.0
100
AcDbRotatedDimension
  0
DIMENSION
  5
41F
330
1F
100
AcDbEntity
  8
Bemaßungen_TC_020513_DIN_
100
AcDbDimension
  2
*D7
 10
512.444342343704
 20
189.5807785564835
 30
0.0
 11
508.144342343704
 21
169.109402052741
 31
0.0
 70
    32
  1
11,5
 71
     5
 42
-1.0
 53
90.0
  3
ME10_DIM_13
100
AcDbAlignedDimension
 13
450.15771205721
 23
201.080778556484
 33
0.0
 14
445.157712057208
 24
189.580778556484
 34
0.0
 50
90.0
100
AcDbRotatedDimension
  0
DIMENSION
  5
42A
330
1F
100
AcDbEntity
  8
Bemaßungen_TC_020513_DIN_
100
AcDbDimension
  2
*D8
 10
140.8904764229182
 20
154.6799068629231
 30
0.0
 11
224.640476422918
 21
158.840603380336
 31
0.0
 70
    32
  1
167,5
 71
     5
 42
-1.0
 53
0.00013888888889
  3
ME10_DIM_14
100
AcDbAlignedDimension
 13
308.390476422918
 23
189.580778556484
 33
0.0
 14
140.890476422918
 24
189.580778556484
 34
0.0
100
AcDbRotatedDimension
  0
DIMENSION
  5
435
330
1F
100
AcDbEntity
  8
Bemaßungen_TC_020513_DIN_
100
AcDbDimension
  2
*D9
 10
299.3904764229181
 20
276.9334517525771
 30
0.0
 11
224.640476422918
 21
281.09414826999
 31
0.0
 70
    32
  1
149,5
 71
     5
 42
-1.0
 53
0.00013888888889
  3
ME10_DIM_15
100
AcDbAlignedDimension
 13
149.890476422918
 23
219.445842065945
 33
0.0
 14
299.390476422918
 24
219.445842065945
 34
0.0
100
AcDbRotatedDimension
  0
DIMENSION
  5
440
330
1F
100
AcDbEntity
  8
Bemaßungen_TC_020513_DIN_
100
AcDbDimension
  2
*D10
 10
537.018408574621
 20
229.7807785564844
 30
0.0
 11
527.7015562740502
 21
211.964325623333
 31
0.0
 70
    32
  1
42
 71
     5
 42
-1.0
 53
90.0
  3
ME10_DIM_16
100
AcDbAlignedDimension
 13
445.157712057208
 23
189.580778556484
 33
0.0
 14
420.135000494635
 24
229.780778556484
 34
0.0
 50
90.0
100
AcDbRotatedDimension
  0
DIMENSION
  5
44B
330
1F
100
AcDbEntity
  8
Bemaßungen_TC_020513_DIN_
100
AcDbDimension
  2
*D11
 10
77.75594761846871
 20
271.0721336901284
 30
0.0
 11
108.555306417923
 21
279.820155518232
 31
0.0
 70
    32
  1
148
 71
     5
 42
-1.0
 53
0.00013888888889
  3
ME10_DIM_17
100
AcDbAlignedDimension
 13
136.955947618469
 23
309.372133690129
 33
0.0
 14
77.7559476184689
 24
309.372133690129
 34
0.0
100
AcDbRotatedDimension
  0
DIMENSION
  5
456
330
1F
100
AcDbEntity
  8
Bemaßungen_TC_020513_DIN_
100
AcDbDimension
  2
*D12
 10
82.3559476184688
 20
287.1721336901282
 30
0.0
 11
108.5362068272
 21
295.920155518232
 31
0.0
 70
    32
  1
125
 71
     5
 42
-1.0
 53
0.00013888888889
  3
ME10_DIM_18
100
AcDbAlignedDimension
 13
132.355947618469
 23
307.172133690129
 33
0.0
 14
82.3559476184689
 24
307.172133690129
 34
0.0
100
AcDbRotatedDimension
  0
DIMENSION
  5
461
330
1F
100
AcDbEntity
  8
Bemaßungen_TC_020513_DIN_
100
AcDbDimension
  2
*D13
 10
34.82250327536594
 20
339.5721336901288
 30
0.0
 11
26.0744814472622
 21
324.769364249474
 31
0.0
 70
    32
  1
81
 71
     5
 42
-1.0
 53
90.0
  3
ME10_DIM_19
100
AcDbAlignedDimension
 13
82.3559476184689
 23
307.172133690129
 33
0.0
 14
82.3559476184689
 24
339.572133690129
 34
0.0
 50
90.0
100
AcDbRotatedDimension
  0
DIMENSION
  5
46C
330
1F
100
AcDbEntity
  8
Bemaßungen_TC_020513_DIN_
100
AcDbDimension
  2
*D14
 10
51.45594761846903
 20
337.3721336901288
 30
0.0
 11
42.7079257903653
 21
324.139077755613
 31
0.0
 70
    32
  1
70
 71
     5
 42
-1.0
 53
90.0
  3
ME10_DIM_20
100
AcDbAlignedDimension
 13
77.7559476184689
 23
309.372133690129
 33
0.0
 14
77.7559476184689
 24
337.372133690129
 34
0.0
 50
90.0
100
AcDbRotatedDimension
  0
DIMENSION
  5
477
330
1F
100
AcDbEntity
  8
Bemaßungen_TC_020513_DIN_
100
AcDbDimension
  2
*D15
 10
504.6603065636251
 20
276.714953768706
 30
0.0
 11
428.1590093104226
 21
280.3532622264175
 31
0.0
 70
    32
  1
153
 71
     5
 42
-1.0
 53
0.00013888888889
  3
ME10_DIM_21
100
AcDbAlignedDimension
 13
351.6577120572201
 23
232.080778556484
 33
0.0
 14
504.660306563625
 24
217.2807785564841
 34
0.0
100
AcDbRotatedDimension
  0
DIMENSION
  5
484
330
1F
100
AcDbEntity
  8
1
100
AcDbDimension
  2
*D16
 10
351.65771205722
 20
154.679906862923
 30
0.0
 11
338.430456415861
 21
158.3182153206345
 31
0.0
 70
    32
  1
<>
 71
     5
 42
-1.0
 53
0.00013888888889
  3
ME10_DIM_22
100
AcDbAlignedDimension
 13
364.157712057212
 23
189.580778556484
 33
0.0
 14
351.6577120572201
 24
219.580778556484
 34
0.0
100
AcDbRotatedDimension
  0
ENDSEC
  0
SECTION
  2
OBJECTS
  0
DICTIONARY
  5
C
330
0
100
AcDbDictionary
281
     1
  3
ACAD_GROUP
350
D
  3
ACAD_LAYOUT
350
1A
  3
ACAD_MATERIAL
350
3B
  3
ACAD_MLEADERSTYLE
350
487
  3
ACAD_MLINESTYLE
350
17
  3
ACAD_PLOTSETTINGS
350
19
  3
ACAD_PLOTSTYLENAME
350
E
  3
ACAD_VISUALSTYLE
350
2A
  3
AcDbVariableDictionary
350
485
  0
DICTIONARY
  5
D
102
{ACAD_REACTORS
330
C
102
}
330
C
100
AcDbDictionary
281
     1
  0
DICTIONARY
  5
1A
102
{ACAD_REACTORS
330
C
102
}
330
C
100
AcDbDictionary
281
     1
  3
Layout1
350
1E
  3
Layout2
350
26
  3
Model
350
22
  0
DICTIONARY
  5
3B
102
{ACAD_REACTORS
330
C
102
}
330
C
100
AcDbDictionary
281
     1
  3
ByBlock
350
3D
  3
ByLayer
350
3C
  3
Global
350
3E
  0
DICTIONARY
  5
487
102
{ACAD_REACTORS
330
C
102
}
330
C
100
AcDbDictionary
281
     1
  0
DICTIONARY
  5
17
102
{ACAD_REACTORS
330
C
102
}
330
C
100
AcDbDictionary
281
     1
  3
Standard
350
18
  0
DICTIONARY
  5
19
102
{ACAD_REACTORS
330
C
102
}
330
C
100
AcDbDictionary
281
     1
  0
ACDBDICTIONARYWDFLT
  5
E
102
{ACAD_REACTORS
330
C
102
}
330
C
100
AcDbDictionary
281
     1
  3
Normal
350
F
100
AcDbDictionaryWithDefault
340
F
  0
DICTIONARY
  5
2A
102
{ACAD_REACTORS
330
C
102
}
330
C
100
AcDbDictionary
281
     1
  3
2dWireframe
350
2F
  3
3D Hidden
350
31
  3
3dWireframe
350
30
  3
Basic
350
32
  3
Brighten
350
36
  3
ColorChange
350
3A
  3
Conceptual
350
34
  3
Dim
350
35
  3
Facepattern
350
39
  3
Flat
350
2B
  3
FlatWithEdges
350
2C
  3
Gouraud
350
2D
  3
GouraudWithEdges
350
2E
  3
Linepattern
350
38
  3
Realistic
350
33
  3
Thicken
350
37
  0
DICTIONARY
  5
485
102
{ACAD_REACTORS
330
C
102
}
330
C
100
AcDbDictionary
281
     1
  3
DIMASSOC
350
488
  3
HIDETEXT
350
489
  0
LAYOUT
  5
1E
102
{ACAD_REACTORS
330
1A
102
}
330
1A
100
AcDbPlotSettings
  1

  2
none_device
  4

  6

 40
0.0
 41
0.0
 42
0.0
 43
0.0
 44
0.0
 45
0.0
 46
0.0
 47
0.0
 48
0.0
 49
0.0
140
0.0
141
0.0
142
1.0
143
1.0
 70
   688
 72
     0
 73
     0
 74
     5
  7

 75
    16
147
1.0
148
0.0
149
0.0
100
AcDbLayout
  1
Layout1
 70
     1
 71
     1
 10
0.0
 20
0.0
 11
12.0
 21
9.0
 12
0.0
 22
0.0
 32
0.0
 14
1.00000000000000E+20
 24
1.00000000000000E+20
 34
1.00000000000000E+20
 15
-1.00000000000000E+20
 25
-1.00000000000000E+20
 35
-1.00000000000000E+20
146
0.0
 13
0.0
 23
0.0
 33
0.0
 16
1.0
 26
0.0
 36
0.0
 17
0.0
 27
1.0
 37
0.0
 76
     0
330
1B
  0
LAYOUT
  5
26
102
{ACAD_REACTORS
330
1A
102
}
330
1A
100
AcDbPlotSettings
  1

  2
none_device
  4

  6

 40
0.0
 41
0.0
 42
0.0
 43
0.0
 44
0.0
 45
0.0
 46
0.0
 47
0.0
 48
0.0
 49
0.0
140
0.0
141
0.0
142
1.0
143
1.0
 70
   688
 72
     0
 73
     0
 74
     5
  7

 75
    16
147
1.0
148
0.0
149
0.0
100
AcDbLayout
  1
Layout2
 70
     1
 71
     2
 10
0.0
 20
0.0
 11
0.0
 21
0.0
 12
0.0
 22
0.0
 32
0.0
 14
0.0
 24
0.0
 34
0.0
 15
0.0
 25
0.0
 35
0.0
146
0.0
 13
0.0
 23
0.0
 33
0.0
 16
1.0
 26
0.0
 36
0.0
 17
0.0
 27
1.0
 37
0.0
 76
     0
330
23
  0
LAYOUT
  5
22
102
{ACAD_REACTORS
330
1A
102
}
330
1A
100
AcDbPlotSettings
  1

  2
none_device
  4

  6

 40
0.0
 41
0.0
 42
0.0
 43
0.0
 44
0.0
 45
0.0
 46
0.0
 47
0.0
 48
0.0
 49
0.0
140
0.0
141
0.0
142
1.0
143
1.0
 70
  1712
 72
     0
 73
     0
 74
     0
  7

 75
     0
147
1.0
148
0.0
149
0.0
100
AcDbLayout
  1
Model
 70
     1
 71
     0
 10
0.0
 20
0.0
 11
12.0
 21
9.0
 12
0.0
 22
0.0
 32
0.0
 14
19.49999999999996
 24
19.4999999999999
 34
0.0
 15
574.5
 25
420.5
 35
0.0
146
0.0
 13
0.0
 23
0.0
 33
0.0
 16
1.0
 26
0.0
 36
0.0
 17
0.0
 27
1.0
 37
0.0
 76
     0
330
1F
331
29
  0
MATERIAL
  5
3D
102
{ACAD_REACTORS
330
3B
102
}
102
{ACAD_XDICTIONARY
360
4AC
102
}
330
3B
100
AcDbMaterial
  1
ByBlock
  0
MATERIAL
  5
3C
102
{ACAD_REACTORS
330
3B
102
}
102
{ACAD_XDICTIONARY
360
4AA
102
}
330
3B
100
AcDbMaterial
  1
ByLayer
  0
MATERIAL
  5
3E
102
{ACAD_REACTORS
330
3B
102
}
102
{ACAD_XDICTIONARY
360
4AE
102
}
330
3B
100
AcDbMaterial
  1
Global
  0
MLINESTYLE
  5
18
102
{ACAD_REACTORS
330
17
102
}
330
17
100
AcDbMlineStyle
  2
Standard
 70
     0
  3

 62
   256
 51
90.0
 52
90.0
 71
     2
 49
0.5
 62
   256
  6
BYLAYER
 49
-0.5
 62
   256
  6
BYLAYER
  0
ACDBPLACEHOLDER
  5
F
102
{ACAD_REACTORS
330
E
102
}
330
E
  0
VISUALSTYLE
  5
2F
102
{ACAD_REACTORS
330
2A
102
}
102
{ACAD_XDICTIONARY
360
492
102
}
330
2A
100
AcDbVisualStyle
  2
2dWireframe
 70
     4
 71
     0
 72
     2
 73
     0
 90
        0
 40
-0.6
 41
-30.0
 62
     5
 63
     7
 74
     1
 91
        4
 64
     7
 65
   257
 75
     1
175
     1
 42
1.0
 92
        0
 66
   257
 43
1.0
 76
     1
 77
     6
 78
     2
 67
     7
 79
     5
170
     0
171
     0
290
     0
174
     0
 93
        1
 44
0.0
173
     0
291
     0
 45
0.0
1001
ACAD
1000
AcDbSavedByObjectVersion
1070
     0
  0
VISUALSTYLE
  5
31
102
{ACAD_REACTORS
330
2A
102
}
102
{ACAD_XDICTIONARY
360
496
102
}
330
2A
100
AcDbVisualStyle
  2
3D Hidden
 70
     6
 71
     1
 72
     2
 73
     2
 90
        0
 40
-0.6
 41
-30.0
 62
     5
 63
     7
 74
     2
 91
        2
 64
     7
 65
   257
 75
     2
175
     1
 42
40.0
 92
        0
 66
   257
 43
1.0
 76
     1
 77
     6
 78
     2
 67
     7
 79
     3
170
     0
171
     0
290
     0
174
     0
 93
        1
 44
0.0
173
     0
291
     0
 45
0.0
1001
ACAD
1000
AcDbSavedByObjectVersion
1070
     0
  0
VISUALSTYLE
  5
30
102
{ACAD_REACTORS
330
2A
102
}
102
{ACAD_XDICTIONARY
360
494
102
}
330
2A
100
AcDbVisualStyle
  2
3dWireframe
 70
     5
 71
     0
 72
     2
 73
     0
 90
        0
 40
-0.6
 41
-30.0
 62
     5
 63
     7
 74
     1
 91
        4
 64
     7
 65
   257
 75
     1
175
     1
 42
1.0
 92
        0
 66
   257
 43
1.0
 76
     1
 77
     6
 78
     2
 67
     7
 79
     5
170
     0
171
     0
290
     0
174
     0
 93
        1
 44
0.0
173
     0
291
     0
 45
0.0
1001
ACAD
1000
AcDbSavedByObjectVersion
1070
     0
  0
VISUALSTYLE
  5
32
102
{ACAD_REACTORS
330
2A
102
}
102
{ACAD_XDICTIONARY
360
498
102
}
330
2A
100
AcDbVisualStyle
  2
Basic
 70
     7
 71
     1
 72
     0
 73
     1
 90
        0
 40
-0.6
 41
-30.0
 62
     5
 63
     7
 74
     0
 91
        4
 64
     7
 65
   257
 75
     1
175
     1
 42
1.0
 92
        8
 66
     7
 43
1.0
 76
     1
 77
     6
 78
     2
 67
     7
 79
     5
170
     0
171
     0
290
     0
174
     0
 93
        1
 44
0.0
173
     0
291
     1
 45
0.0
1001
ACAD
1000
AcDbSavedByObjectVersion
1070
     0
  0
VISUALSTYLE
  5
36
102
{ACAD_REACTORS
330
2A
102
}
102
{ACAD_XDICTIONARY
360
4A0
102
}
330
2A
100
AcDbVisualStyle
  2
Brighten
 70
    12
 71
     2
 72
     2
 73
     0
 90
        0
 40
-0.6
 41
-30.0
 62
     5
 63
     7
 74
     1
 91
        4
 64
     7
 65
   257
 75
     1
175
     1
 42
1.0
 92
        8
 66
     7
 43
1.0
 76
     1
 77
     6
 78
     2
 67
     7
 79
     5
170
     0
171
     0
290
     0
174
     0
 93
        1
 44
50.0
173
     0
291
     1
 45
0.0
1001
ACAD
1000
AcDbSavedByObjectVersion
1070
     0
  0
VISUALSTYLE
  5
3A
102
{ACAD_REACTORS
330
2A
102
}
102
{ACAD_XDICTIONARY
360
4A8
102
}
330
2A
100
AcDbVisualStyle
  2
ColorChange
 70
    16
 71
     2
 72
     2
 73
     3
 90
        0
 40
-0.6
 41
-30.0
 62
     5
 63
     8
 74
     1
 91
        4
 64
     7
 65
   257
 75
     1
175
     1
 42
1.0
 92
        8
 66
     8
 43
1.0
 76
     1
 77
     6
 78
     2
 67
     7
 79
     5
170
     0
171
     0
290
     0
174
     0
 93
        1
 44
0.0
173
     0
291
     1
 45
0.0
1001
ACAD
1000
AcDbSavedByObjectVersion
1070
     0
  0
VISUALSTYLE
  5
34
102
{ACAD_REACTORS
330
2A
102
}
102
{ACAD_XDICTIONARY
360
49C
102
}
330
2A
100
AcDbVisualStyle
  2
Conceptual
 70
     9
 71
     3
 72
     2
 73
     0
 90
        0
 40
-0.6
 41
-30.0
 62
     5
 63
     7
 74
     2
 91
        2
 64
     7
 65
   257
 75
     1
175
     1
 42
40.0
 92
        8
 66
     7
 43
1.0
 76
     1
 77
     6
 78
     2
 67
     7
 79
     3
170
     0
171
     0
290
     0
174
     0
 93
        1
 44
0.0
173
     0
291
     0
 45
0.0
1001
ACAD
1000
AcDbSavedByObjectVersion
1070
     0
  0
VISUALSTYLE
  5
35
102
{ACAD_REACTORS
330
2A
102
}
102
{ACAD_XDICTIONARY
360
49E
102
}
330
2A
100
AcDbVisualStyle
  2
Dim
 70
    11
 71
     2
 72
     2
 73
     0
 90
        0
 40
-0.6
 41
-30.0
 62
     5
 63
     7
 74
     1
 91
        4
 64
     7
 65
   257
 75
     1
175
     1
 42
1.0
 92
        8
 66
     7
 43
1.0
 76
     1
 77
     6
 78
     2
 67
     7
 79
     5
170
     0
171
     0
290
     0
174
     0
 93
        1
 44
-50.0
173
     0
291
     1
 45
0.0
1001
ACAD
1000
AcDbSavedByObjectVersion
1070
     0
  0
VISUALSTYLE
  5
39
102
{ACAD_REACTORS
330
2A
102
}
102
{ACAD_XDICTIONARY
360
4A6
102
}
330
2A
100
AcDbVisualStyle
  2
Facepattern
 70
    15
 71
     2
 72
     2
 73
     0
 90
        0
 40
-0.6
 41
-30.0
 62
     5
 63
     7
 74
     1
 91
        4
 64
     7
 65
   257
 75
     1
175
     1
 42
1.0
 92
        8
 66
     7
 43
1.0
 76
     1
 77
     6
 78
     2
 67
     7
 79
     5
170
     0
171
     0
290
     0
174
     0
 93
        1
 44
0.0
173
     0
291
     1
 45
0.0
1001
ACAD
1000
AcDbSavedByObjectVersion
1070
     0
  0
VISUALSTYLE
  5
2B
102
{ACAD_REACTORS
330
2A
102
}
102
{ACAD_XDICTIONARY
360
48A
102
}
330
2A
100
AcDbVisualStyle
  2
Flat
 70
     0
 71
     2
 72
     1
 73
     1
 90
        2
 40
-0.6
 41
30.0
 62
     5
 63
     7
 74
     0
 91
        4
 64
     7
 65
   257
 75
     1
175
     1
 42
1.0
 92
        8
 66
     7
 43
1.0
 76
     1
 77
     6
 78
     2
 67
     7
 79
     5
170
     0
171
     0
290
     0
174
     0
 93
       13
 44
0.0
173
     0
291
     1
 45
0.0
1001
ACAD
1000
AcDbSavedByObjectVersion
1070
     0
  0
VISUALSTYLE
  5
2C
102
{ACAD_REACTORS
330
2A
102
}
102
{ACAD_XDICTIONARY
360
48C
102
}
330
2A
100
AcDbVisualStyle
  2
FlatWithEdges
 70
     1
 71
     2
 72
     1
 73
     1
 90
        2
 40
-0.6
 41
30.0
 62
     5
 63
     7
 74
     1
 91
        4
 64
     7
 65
   257
 75
     1
175
     1
 42
1.0
 92
        0
 66
   257
 43
1.0
 76
     1
 77
     6
 78
     2
 67
     7
 79
     5
170
     0
171
     0
290
     0
174
     0
 93
       13
 44
0.0
173
     0
291
     1
 45
0.0
1001
ACAD
1000
AcDbSavedByObjectVersion
1070
     0
  0
VISUALSTYLE
  5
2D
102
{ACAD_REACTORS
330
2A
102
}
102
{ACAD_XDICTIONARY
360
48E
102
}
330
2A
100
AcDbVisualStyle
  2
Gouraud
 70
     2
 71
     2
 72
     2
 73
     1
 90
        2
 40
-0.6
 41
30.0
 62
     5
 63
     7
 74
     0
 91
        4
 64
     7
 65
   257
 75
     1
175
     1
 42
1.0
 92
        0
 66
     7
 43
1.0
 76
     1
 77
     6
 78
     2
 67
     7
 79
     5
170
     0
171
     0
290
     0
174
     0
 93
       13
 44
0.0
173
     0
291
     1
 45
0.0
1001
ACAD
1000
AcDbSavedByObjectVersion
1070
     0
  0
VISUALSTYLE
  5
2E
102
{ACAD_REACTORS
330
2A
102
}
102
{ACAD_XDICTIONARY
360
490
102
}
330
2A
100
AcDbVisualStyle
  2
GouraudWithEdges
 70
     3
 71
     2
 72
     2
 73
     1
 90
        2
 40
-0.6
 41
30.0
 62
     5
 63
     7
 74
     1
 91
        4
 64
     7
 65
   257
 75
     1
175
     1
 42
1.0
 92
        0
 66
   257
 43
1.0
 76
     1
 77
     6
 78
     2
 67
     7
 79
     5
170
     0
171
     0
290
     0
174
     0
 93
       13
 44
0.0
173
     0
291
     1
 45
0.0
1001
ACAD
1000
AcDbSavedByObjectVersion
1070
     0
  0
VISUALSTYLE
  5
38
102
{ACAD_REACTORS
330
2A
102
}
102
{ACAD_XDICTIONARY
360
4A4
102
}
330
2A
100
AcDbVisualStyle
  2
Linepattern
 70
    14
 71
     2
 72
     2
 73
     0
 90
        0
 40
-0.6
 41
-30.0
 62
     5
 63
     7
 74
     1
 91
        4
 64
     7
 65
   257
 75
     7
175
     7
 42
1.0
 92
        8
 66
     7
 43
1.0
 76
     1
 77
     6
 78
     2
 67
     7
 79
     5
170
     0
171
     0
290
     0
174
     0
 93
        1
 44
0.0
173
     0
291
     1
 45
0.0
1001
ACAD
1000
AcDbSavedByObjectVersion
1070
     0
  0
VISUALSTYLE
  5
33
102
{ACAD_REACTORS
330
2A
102
}
102
{ACAD_XDICTIONARY
360
49A
102
}
330
2A
100
AcDbVisualStyle
  2
Realistic
 70
     8
 71
     2
 72
     2
 73
     0
 90
        0
 40
-0.6
 41
-30.0
 62
     5
 63
     7
 74
     1
 91
        0
 64
     7
 65
   257
 75
     1
175
     1
 42
1.0
 92
        8
 66
     8
 43
1.0
 76
     1
 77
     6
 78
     2
 67
     7
 79
     5
170
     0
171
     0
290
     0
174
     0
 93
       13
 44
0.0
173
     0
291
     0
 45
0.0
1001
ACAD
1000
AcDbSavedByObjectVersion
1070
     0
  0
VISUALSTYLE
  5
37
102
{ACAD_REACTORS
330
2A
102
}
102
{ACAD_XDICTIONARY
360
4A2
102
}
330
2A
100
AcDbVisualStyle
  2
Thicken
 70
    13
 71
     2
 72
     2
 73
     0
 90
        0
 40
-0.6
 41
-30.0
 62
     5
 63
     7
 74
     1
 91
        4
 64
     7
 65
   257
 75
     1
175
     1
 42
1.0
 92
       12
 66
     7
 43
1.0
 76
     1
 77
     6
 78
     2
 67
     7
 79
     5
170
     0
171
     0
290
     0
174
     0
 93
        1
 44
0.0
173
     0
291
     1
 45
0.0
1001
ACAD
1000
AcDbSavedByObjectVersion
1070
     0
  0
DICTIONARYVAR
  5
488
102
{ACAD_REACTORS
330
485
102
}
330
485
100
DictionaryVariables
280
     0
  1
2
  0
DICTIONARYVAR
  5
489
102
{ACAD_REACTORS
330
485
102
}
330
485
100
DictionaryVariables
280
     0
  1
1
  0
DICTIONARY
  5
4AC
330
3D
100
AcDbDictionary
280
     1
281
     1
  3
ACAD_XREC_ROUNDTRIP
360
4AD
  0
DICTIONARY
  5
4AA
330
3C
100
AcDbDictionary
280
     1
281
     1
  3
ACAD_XREC_ROUNDTRIP
360
4AB
  0
DICTIONARY
  5
4AE
330
3E
100
AcDbDictionary
280
     1
281
     1
  3
ACAD_XREC_ROUNDTRIP
360
4AF
  0
DICTIONARY
  5
492
330
2F
100
AcDbDictionary
280
     1
281
     1
  3
ACAD_XREC_ROUNDTRIP
360
493
  0
DICTIONARY
  5
496
330
31
100
AcDbDictionary
280
     1
281
     1
  3
ACAD_XREC_ROUNDTRIP
360
497
  0
DICTIONARY
  5
494
330
30
100
AcDbDictionary
280
     1
281
     1
  3
ACAD_XREC_ROUNDTRIP
360
495
  0
DICTIONARY
  5
498
330
32
100
AcDbDictionary
280
     1
281
     1
  3
ACAD_XREC_ROUNDTRIP
360
499
  0
DICTIONARY
  5
4A0
330
36
100
AcDbDictionary
280
     1
281
     1
  3
ACAD_XREC_ROUNDTRIP
360
4A1
  0
DICTIONARY
  5
4A8
330
3A
100
AcDbDictionary
280
     1
281
     1
  3
ACAD_XREC_ROUNDTRIP
360
4A9
  0
DICTIONARY
  5
49C
330
34
100
AcDbDictionary
280
     1
281
     1
  3
ACAD_XREC_ROUNDTRIP
360
49D
  0
DICTIONARY
  5
49E
330
35
100
AcDbDictionary
280
     1
281
     1
  3
ACAD_XREC_ROUNDTRIP
360
49F
  0
DICTIONARY
  5
4A6
330
39
100
AcDbDictionary
280
     1
281
     1
  3
ACAD_XREC_ROUNDTRIP
360
4A7
  0
DICTIONARY
  5
48A
330
2B
100
AcDbDictionary
280
     1
281
     1
  3
ACAD_XREC_ROUNDTRIP
360
48B
  0
DICTIONARY
  5
48C
330
2C
100
AcDbDictionary
280
     1
281
     1
  3
ACAD_XREC_ROUNDTRIP
360
48D
  0
DICTIONARY
  5
48E
330
2D
100
AcDbDictionary
280
     1
281
     1
  3
ACAD_XREC_ROUNDTRIP
360
48F
  0
DICTIONARY
  5
490
330
2E
100
AcDbDictionary
280
     1
281
     1
  3
ACAD_XREC_ROUNDTRIP
360
491
  0
DICTIONARY
  5
4A4
330
38
100
AcDbDictionary
280
     1
281
     1
  3
ACAD_XREC_ROUNDTRIP
360
4A5
  0
DICTIONARY
  5
49A
330
33
100
AcDbDictionary
280
     1
281
     1
  3
ACAD_XREC_ROUNDTRIP
360
49B
  0
DICTIONARY
  5
4A2
330
37
100
AcDbDictionary
280
     1
281
     1
  3
ACAD_XREC_ROUNDTRIP
360
4A3
  0
XRECORD
  5
4AD
102
{ACAD_REACTORS
330
4AC
102
}
330
4AC
100
AcDbXrecord
280
     1
102
MATERIAL
148
0.0
149
0.0
149
0.0
 93
        0
 94
      127
282
     0
 72
     1
 77
     1
171
     1
175
     1
179
     1
273
     0
  0
XRECORD
  5
4AB
102
{ACAD_REACTORS
330
4AA
102
}
330
4AA
100
AcDbXrecord
280
     1
102
MATERIAL
148
0.0
149
0.0
149
0.0
 93
        0
 94
      127
282
     0
 72
     1
 77
     1
171
     1
175
     1
179
     1
273
     0
  0
XRECORD
  5
4AF
102
{ACAD_REACTORS
330
4AE
102
}
330
4AE
100
AcDbXrecord
280
     1
102
MATERIAL
148
0.0
149
0.0
149
0.0
 93
        0
 94
      127
282
     0
 72
     1
 77
     1
171
     1
175
     1
179
     1
273
     0
  0
XRECORD
  5
493
102
{ACAD_REACTORS
330
492
102
}
330
492
100
AcDbXrecord
280
     1
102
RTVSPropertyOp0
 70
     1
102
RTVSPropertyOp1
 70
     1
102
RTVSPropertyOp2
 70
     1
102
RTVSPropertyOp3
 70
     1
102
RTVSPropertyOp4
 70
     1
102
RTVSPropertyOp5
 70
     1
102
RTVSPropertyOp6
 70
     1
102
RTVSPropertyOp7
 70
     1
102
RTVSPropertyOp8
 70
     1
102
RTVSPropertyOp9
 70
     1
102
RTVSPropertyOp10
 70
     1
102
RTVSPropertyOp11
 70
     1
102
RTVSPropertyOp12
 70
     1
102
RTVSPropertyOp13
 70
     1
102
RTVSPropertyOp14
 70
     1
102
RTVSPropertyOp15
 70
     1
102
RTVSPropertyOp16
 70
     1
102
RTVSPropertyOp17
 70
     1
102
RTVSPropertyOp18
 70
     1
102
RTVSPropertyOp19
 70
     1
102
RTVSPropertyOp20
 70
     1
102
RTVSPropertyOp21
 70
     1
102
RTVSPropertyOp22
 70
     1
102
RTVSPropertyOp23
 70
     1
102
RTVSPropertyOp24
 70
     1
102
RTVSPropertyOp25
 70
     1
102
RTVSPropertyOp26
 70
     1
102
RTVSPropertyOp27
 70
     1
102
RTVSPropertyOp28
 70
     1
102
RTVSPropertyOp29
 70
     1
102
RTVSPropertyOp30
 70
     1
102
RTVSPropertyOp31
 70
     1
102
RTVSPropertyOp32
 70
     1
  0
XRECORD
  5
497
102
{ACAD_REACTORS
330
496
102
}
330
496
100
AcDbXrecord
280
     1
102
RTVSPropertyOp0
 70
     1
102
RTVSPropertyOp1
 70
     1
102
RTVSPropertyOp2
 70
     1
102
RTVSPropertyOp3
 70
     1
102
RTVSPropertyOp4
 70
     1
102
RTVSPropertyOp5
 70
     1
102
RTVSPropertyOp6
 70
     1
102
RTVSPropertyOp7
 70
     1
102
RTVSPropertyOp8
 70
     1
102
RTVSPropertyOp9
 70
     1
102
RTVSPropertyOp10
 70
     1
102
RTVSPropertyOp11
 70
     1
102
RTVSPropertyOp12
 70
     1
102
RTVSPropertyOp13
 70
     1
102
RTVSPropertyOp14
 70
     1
102
RTVSPropertyOp15
 70
     1
102
RTVSPropertyOp16
 70
     1
102
RTVSPropertyOp17
 70
     1
102
RTVSPropertyOp18
 70
     1
102
RTVSPropertyOp19
 70
     1
102
RTVSPropertyOp20
 70
     1
102
RTVSPropertyOp21
 70
     1
102
RTVSPropertyOp22
 70
     1
102
RTVSPropertyOp23
 70
     1
102
RTVSPropertyOp24
 70
     1
102
RTVSPropertyOp25
 70
     1
102
RTVSPropertyOp26
 70
     1
102
RTVSPropertyOp27
 70
     1
102
RTVSPropertyOp28
 70
     1
102
RTVSPropertyOp29
 70
     1
102
RTVSPropertyOp30
 70
     1
102
RTVSPropertyOp31
 70
     1
102
RTVSPropertyOp32
 70
     1
  0
XRECORD
  5
495
102
{ACAD_REACTORS
330
494
102
}
330
494
100
AcDbXrecord
280
     1
102
RTVSPropertyOp0
 70
     1
102
RTVSPropertyOp1
 70
     1
102
RTVSPropertyOp2
 70
     1
102
RTVSPropertyOp3
 70
     1
102
RTVSPropertyOp4
 70
     1
102
RTVSPropertyOp5
 70
     1
102
RTVSPropertyOp6
 70
     1
102
RTVSPropertyOp7
 70
     1
102
RTVSPropertyOp8
 70
     1
102
RTVSPropertyOp9
 70
     1
102
RTVSPropertyOp10
 70
     1
102
RTVSPropertyOp11
 70
     1
102
RTVSPropertyOp12
 70
     1
102
RTVSPropertyOp13
 70
     1
102
RTVSPropertyOp14
 70
     1
102
RTVSPropertyOp15
 70
     1
102
RTVSPropertyOp16
 70
     1
102
RTVSPropertyOp17
 70
     1
102
RTVSPropertyOp18
 70
     1
102
RTVSPropertyOp19
 70
     1
102
RTVSPropertyOp20
 70
     1
102
RTVSPropertyOp21
 70
     1
102
RTVSPropertyOp22
 70
     1
102
RTVSPropertyOp23
 70
     1
102
RTVSPropertyOp24
 70
     1
102
RTVSPropertyOp25
 70
     1
102
RTVSPropertyOp26
 70
     1
102
RTVSPropertyOp27
 70
     1
102
RTVSPropertyOp28
 70
     1
102
RTVSPropertyOp29
 70
     1
102
RTVSPropertyOp30
 70
     1
102
RTVSPropertyOp31
 70
     1
102
RTVSPropertyOp32
 70
     1
  0
XRECORD
  5
499
102
{ACAD_REACTORS
330
498
102
}
330
498
100
AcDbXrecord
280
     1
102
RTVSPropertyOp0
 70
     1
102
RTVSPropertyOp1
 70
     1
102
RTVSPropertyOp2
 70
     1
102
RTVSPropertyOp3
 70
     1
102
RTVSPropertyOp4
 70
     1
102
RTVSPropertyOp5
 70
     1
102
RTVSPropertyOp6
 70
     1
102
RTVSPropertyOp7
 70
     1
102
RTVSPropertyOp8
 70
     1
102
RTVSPropertyOp9
 70
     1
102
RTVSPropertyOp10
 70
     1
102
RTVSPropertyOp11
 70
     1
102
RTVSPropertyOp12
 70
     1
102
RTVSPropertyOp13
 70
     1
102
RTVSPropertyOp14
 70
     1
102
RTVSPropertyOp15
 70
     1
102
RTVSPropertyOp16
 70
     1
102
RTVSPropertyOp17
 70
     1
102
RTVSPropertyOp18
 70
     1
102
RTVSPropertyOp19
 70
     1
102
RTVSPropertyOp20
 70
     1
102
RTVSPropertyOp21
 70
     1
102
RTVSPropertyOp22
 70
     1
102
RTVSPropertyOp23
 70
     1
102
RTVSPropertyOp24
 70
     1
102
RTVSPropertyOp25
 70
     1
102
RTVSPropertyOp26
 70
     1
102
RTVSPropertyOp27
 70
     1
102
RTVSPropertyOp28
 70
     1
102
RTVSPropertyOp29
 70
     1
102
RTVSPropertyOp30
 70
     1
102
RTVSPropertyOp31
 70
     1
102
RTVSPropertyOp32
 70
     1
  0
XRECORD
  5
4A1
102
{ACAD_REACTORS
330
4A0
102
}
330
4A0
100
AcDbXrecord
280
     1
102
RTVSPropertyOp0
 70
     1
102
RTVSPropertyOp1
 70
     1
102
RTVSPropertyOp2
 70
     1
102
RTVSPropertyOp3
 70
     1
102
RTVSPropertyOp4
 70
     1
102
RTVSPropertyOp5
 70
     1
102
RTVSPropertyOp6
 70
     1
102
RTVSPropertyOp7
 70
     1
102
RTVSPropertyOp8
 70
     1
102
RTVSPropertyOp9
 70
     1
102
RTVSPropertyOp10
 70
     1
102
RTVSPropertyOp11
 70
     1
102
RTVSPropertyOp12
 70
     1
102
RTVSPropertyOp13
 70
     1
102
RTVSPropertyOp14
 70
     1
102
RTVSPropertyOp15
 70
     1
102
RTVSPropertyOp16
 70
     1
102
RTVSPropertyOp17
 70
     1
102
RTVSPropertyOp18
 70
     1
102
RTVSPropertyOp19
 70
     1
102
RTVSPropertyOp20
 70
     1
102
RTVSPropertyOp21
 70
     1
102
RTVSPropertyOp22
 70
     1
102
RTVSPropertyOp23
 70
     1
102
RTVSPropertyOp24
 70
     1
102
RTVSPropertyOp25
 70
     1
102
RTVSPropertyOp26
 70
     1
102
RTVSPropertyOp27
 70
     1
102
RTVSPropertyOp28
 70
     1
102
RTVSPropertyOp29
 70
     1
102
RTVSPropertyOp30
 70
     1
102
RTVSPropertyOp31
 70
     1
102
RTVSPropertyOp32
 70
     1
  0
XRECORD
  5
4A9
102
{ACAD_REACTORS
330
4A8
102
}
330
4A8
100
AcDbXrecord
280
     1
102
RTVSPropertyOp0
 70
     1
102
RTVSPropertyOp1
 70
     1
102
RTVSPropertyOp2
 70
     1
102
RTVSPropertyOp3
 70
     1
102
RTVSPropertyOp4
 70
     1
102
RTVSPropertyOp5
 70
     1
102
RTVSPropertyOp6
 70
     1
102
RTVSPropertyOp7
 70
     1
102
RTVSPropertyOp8
 70
     1
102
RTVSPropertyOp9
 70
     1
102
RTVSPropertyOp10
 70
     1
102
RTVSPropertyOp11
 70
     1
102
RTVSPropertyOp12
 70
     1
102
RTVSPropertyOp13
 70
     1
102
RTVSPropertyOp14
 70
     1
102
RTVSPropertyOp15
 70
     1
102
RTVSPropertyOp16
 70
     1
102
RTVSPropertyOp17
 70
     1
102
RTVSPropertyOp18
 70
     1
102
RTVSPropertyOp19
 70
     1
102
RTVSPropertyOp20
 70
     1
102
RTVSPropertyOp21
 70
     1
102
RTVSPropertyOp22
 70
     1
102
RTVSPropertyOp23
 70
     1
102
RTVSPropertyOp24
 70
     1
102
RTVSPropertyOp25
 70
     1
102
RTVSPropertyOp26
 70
     1
102
RTVSPropertyOp27
 70
     1
102
RTVSPropertyOp28
 70
     1
102
RTVSPropertyOp29
 70
     1
102
RTVSPropertyOp30
 70
     1
102
RTVSPropertyOp31
 70
     1
102
RTVSPropertyOp32
 70
     1
  0
XRECORD
  5
49D
102
{ACAD_REACTORS
330
49C
102
}
330
49C
100
AcDbXrecord
280
     1
102
RTVSPropertyOp0
 70
     1
102
RTVSPropertyOp1
 70
     1
102
RTVSPropertyOp2
 70
     1
102
RTVSPropertyOp3
 70
     1
102
RTVSPropertyOp4
 70
     1
102
RTVSPropertyOp5
 70
     1
102
RTVSPropertyOp6
 70
     1
102
RTVSPropertyOp7
 70
     1
102
RTVSPropertyOp8
 70
     1
102
RTVSPropertyOp9
 70
     1
102
RTVSPropertyOp10
 70
     1
102
RTVSPropertyOp11
 70
     1
102
RTVSPropertyOp12
 70
     1
102
RTVSPropertyOp13
 70
     1
102
RTVSPropertyOp14
 70
     1
102
RTVSPropertyOp15
 70
     1
102
RTVSPropertyOp16
 70
     1
102
RTVSPropertyOp17
 70
     1
102
RTVSPropertyOp18
 70
     1
102
RTVSPropertyOp19
 70
     1
102
RTVSPropertyOp20
 70
     1
102
RTVSPropertyOp21
 70
     1
102
RTVSPropertyOp22
 70
     1
102
RTVSPropertyOp23
 70
     1
102
RTVSPropertyOp24
 70
     1
102
RTVSPropertyOp25
 70
     1
102
RTVSPropertyOp26
 70
     1
102
RTVSPropertyOp27
 70
     1
102
RTVSPropertyOp28
 70
     1
102
RTVSPropertyOp29
 70
     1
102
RTVSPropertyOp30
 70
     1
102
RTVSPropertyOp31
 70
     1
102
RTVSPropertyOp32
 70
     1
  0
XRECORD
  5
49F
102
{ACAD_REACTORS
330
49E
102
}
330
49E
100
AcDbXrecord
280
     1
102
RTVSPropertyOp0
 70
     1
102
RTVSPropertyOp1
 70
     1
102
RTVSPropertyOp2
 70
     1
102
RTVSPropertyOp3
 70
     1
102
RTVSPropertyOp4
 70
     1
102
RTVSPropertyOp5
 70
     1
102
RTVSPropertyOp6
 70
     1
102
RTVSPropertyOp7
 70
     1
102
RTVSPropertyOp8
 70
     1
102
RTVSPropertyOp9
 70
     1
102
RTVSPropertyOp10
 70
     1
102
RTVSPropertyOp11
 70
     1
102
RTVSPropertyOp12
 70
     1
102
RTVSPropertyOp13
 70
     1
102
RTVSPropertyOp14
 70
     1
102
RTVSPropertyOp15
 70
     1
102
RTVSPropertyOp16
 70
     1
102
RTVSPropertyOp17
 70
     1
102
RTVSPropertyOp18
 70
     1
102
RTVSPropertyOp19
 70
     1
102
RTVSPropertyOp20
 70
     1
102
RTVSPropertyOp21
 70
     1
102
RTVSPropertyOp22
 70
     1
102
RTVSPropertyOp23
 70
     1
102
RTVSPropertyOp24
 70
     1
102
RTVSPropertyOp25
 70
     1
102
RTVSPropertyOp26
 70
     1
102
RTVSPropertyOp27
 70
     1
102
RTVSPropertyOp28
 70
     1
102
RTVSPropertyOp29
 70
     1
102
RTVSPropertyOp30
 70
     1
102
RTVSPropertyOp31
 70
     1
102
RTVSPropertyOp32
 70
     1
  0
XRECORD
  5
4A7
102
{ACAD_REACTORS
330
4A6
102
}
330
4A6
100
AcDbXrecord
280
     1
102
RTVSPropertyOp0
 70
     1
102
RTVSPropertyOp1
 70
     1
102
RTVSPropertyOp2
 70
     1
102
RTVSPropertyOp3
 70
     1
102
RTVSPropertyOp4
 70
     1
102
RTVSPropertyOp5
 70
     1
102
RTVSPropertyOp6
 70
     1
102
RTVSPropertyOp7
 70
     1
102
RTVSPropertyOp8
 70
     1
102
RTVSPropertyOp9
 70
     1
102
RTVSPropertyOp10
 70
     1
102
RTVSPropertyOp11
 70
     1
102
RTVSPropertyOp12
 70
     1
102
RTVSPropertyOp13
 70
     1
102
RTVSPropertyOp14
 70
     1
102
RTVSPropertyOp15
 70
     1
102
RTVSPropertyOp16
 70
     1
102
RTVSPropertyOp17
 70
     1
102
RTVSPropertyOp18
 70
     1
102
RTVSPropertyOp19
 70
     1
102
RTVSPropertyOp20
 70
     1
102
RTVSPropertyOp21
 70
     1
102
RTVSPropertyOp22
 70
     1
102
RTVSPropertyOp23
 70
     1
102
RTVSPropertyOp24
 70
     1
102
RTVSPropertyOp25
 70
     1
102
RTVSPropertyOp26
 70
     1
102
RTVSPropertyOp27
 70
     1
102
RTVSPropertyOp28
 70
     1
102
RTVSPropertyOp29
 70
     1
102
RTVSPropertyOp30
 70
     1
102
RTVSPropertyOp31
 70
     1
102
RTVSPropertyOp32
 70
     1
  0
XRECORD
  5
48B
102
{ACAD_REACTORS
330
48A
102
}
330
48A
100
AcDbXrecord
280
     1
102
RTVSPropertyOp0
 70
     1
102
RTVSPropertyOp1
 70
     1
102
RTVSPropertyOp2
 70
     1
102
RTVSPropertyOp3
 70
     1
102
RTVSPropertyOp4
 70
     1
102
RTVSPropertyOp5
 70
     1
102
RTVSPropertyOp6
 70
     1
102
RTVSPropertyOp7
 70
     1
102
RTVSPropertyOp8
 70
     1
102
RTVSPropertyOp9
 70
     1
102
RTVSPropertyOp10
 70
     1
102
RTVSPropertyOp11
 70
     1
102
RTVSPropertyOp12
 70
     1
102
RTVSPropertyOp13
 70
     1
102
RTVSPropertyOp14
 70
     1
102
RTVSPropertyOp15
 70
     1
102
RTVSPropertyOp16
 70
     1
102
RTVSPropertyOp17
 70
     1
102
RTVSPropertyOp18
 70
     1
102
RTVSPropertyOp19
 70
     1
102
RTVSPropertyOp20
 70
     1
102
RTVSPropertyOp21
 70
     1
102
RTVSPropertyOp22
 70
     1
102
RTVSPropertyOp23
 70
     1
102
RTVSPropertyOp24
 70
     1
102
RTVSPropertyOp25
 70
     1
102
RTVSPropertyOp26
 70
     1
102
RTVSPropertyOp27
 70
     1
102
RTVSPropertyOp28
 70
     1
102
RTVSPropertyOp29
 70
     1
102
RTVSPropertyOp30
 70
     1
102
RTVSPropertyOp31
 70
     1
102
RTVSPropertyOp32
 70
     1
  0
XRECORD
  5
48D
102
{ACAD_REACTORS
330
48C
102
}
330
48C
100
AcDbXrecord
280
     1
102
RTVSPropertyOp0
 70
     1
102
RTVSPropertyOp1
 70
     1
102
RTVSPropertyOp2
 70
     1
102
RTVSPropertyOp3
 70
     1
102
RTVSPropertyOp4
 70
     1
102
RTVSPropertyOp5
 70
     1
102
RTVSPropertyOp6
 70
     1
102
RTVSPropertyOp7
 70
     1
102
RTVSPropertyOp8
 70
     1
102
RTVSPropertyOp9
 70
     1
102
RTVSPropertyOp10
 70
     1
102
RTVSPropertyOp11
 70
     1
102
RTVSPropertyOp12
 70
     1
102
RTVSPropertyOp13
 70
     1
102
RTVSPropertyOp14
 70
     1
102
RTVSPropertyOp15
 70
     1
102
RTVSPropertyOp16
 70
     1
102
RTVSPropertyOp17
 70
     1
102
RTVSPropertyOp18
 70
     1
102
RTVSPropertyOp19
 70
     1
102
RTVSPropertyOp20
 70
     1
102
RTVSPropertyOp21
 70
     1
102
RTVSPropertyOp22
 70
     1
102
RTVSPropertyOp23
 70
     1
102
RTVSPropertyOp24
 70
     1
102
RTVSPropertyOp25
 70
     1
102
RTVSPropertyOp26
 70
     1
102
RTVSPropertyOp27
 70
     1
102
RTVSPropertyOp28
 70
     1
102
RTVSPropertyOp29
 70
     1
102
RTVSPropertyOp30
 70
     1
102
RTVSPropertyOp31
 70
     1
102
RTVSPropertyOp32
 70
     1
  0
XRECORD
  5
48F
102
{ACAD_REACTORS
330
48E
102
}
330
48E
100
AcDbXrecord
280
     1
102
RTVSPropertyOp0
 70
     1
102
RTVSPropertyOp1
 70
     1
102
RTVSPropertyOp2
 70
     1
102
RTVSPropertyOp3
 70
     1
102
RTVSPropertyOp4
 70
     1
102
RTVSPropertyOp5
 70
     1
102
RTVSPropertyOp6
 70
     1
102
RTVSPropertyOp7
 70
     1
102
RTVSPropertyOp8
 70
     1
102
RTVSPropertyOp9
 70
     1
102
RTVSPropertyOp10
 70
     1
102
RTVSPropertyOp11
 70
     1
102
RTVSPropertyOp12
 70
     1
102
RTVSPropertyOp13
 70
     1
102
RTVSPropertyOp14
 70
     1
102
RTVSPropertyOp15
 70
     1
102
RTVSPropertyOp16
 70
     1
102
RTVSPropertyOp17
 70
     1
102
RTVSPropertyOp18
 70
     1
102
RTVSPropertyOp19
 70
     1
102
RTVSPropertyOp20
 70
     1
102
RTVSPropertyOp21
 70
     1
102
RTVSPropertyOp22
 70
     1
102
RTVSPropertyOp23
 70
     1
102
RTVSPropertyOp24
 70
     1
102
RTVSPropertyOp25
 70
     1
102
RTVSPropertyOp26
 70
     1
102
RTVSPropertyOp27
 70
     1
102
RTVSPropertyOp28
 70
     1
102
RTVSPropertyOp29
 70
     1
102
RTVSPropertyOp30
 70
     1
102
RTVSPropertyOp31
 70
     1
102
RTVSPropertyOp32
 70
     1
  0
XRECORD
  5
491
102
{ACAD_REACTORS
330
490
102
}
330
490
100
AcDbXrecord
280
     1
102
RTVSPropertyOp0
 70
     1
102
RTVSPropertyOp1
 70
     1
102
RTVSPropertyOp2
 70
     1
102
RTVSPropertyOp3
 70
     1
102
RTVSPropertyOp4
 70
     1
102
RTVSPropertyOp5
 70
     1
102
RTVSPropertyOp6
 70
     1
102
RTVSPropertyOp7
 70
     1
102
RTVSPropertyOp8
 70
     1
102
RTVSPropertyOp9
 70
     1
102
RTVSPropertyOp10
 70
     1
102
RTVSPropertyOp11
 70
     1
102
RTVSPropertyOp12
 70
     1
102
RTVSPropertyOp13
 70
     1
102
RTVSPropertyOp14
 70
     1
102
RTVSPropertyOp15
 70
     1
102
RTVSPropertyOp16
 70
     1
102
RTVSPropertyOp17
 70
     1
102
RTVSPropertyOp18
 70
     1
102
RTVSPropertyOp19
 70
     1
102
RTVSPropertyOp20
 70
     1
102
RTVSPropertyOp21
 70
     1
102
RTVSPropertyOp22
 70
     1
102
RTVSPropertyOp23
 70
     1
102
RTVSPropertyOp24
 70
     1
102
RTVSPropertyOp25
 70
     1
102
RTVSPropertyOp26
 70
     1
102
RTVSPropertyOp27
 70
     1
102
RTVSPropertyOp28
 70
     1
102
RTVSPropertyOp29
 70
     1
102
RTVSPropertyOp30
 70
     1
102
RTVSPropertyOp31
 70
     1
102
RTVSPropertyOp32
 70
     1
  0
XRECORD
  5
4A5
102
{ACAD_REACTORS
330
4A4
102
}
330
4A4
100
AcDbXrecord
280
     1
102
RTVSPropertyOp0
 70
     1
102
RTVSPropertyOp1
 70
     1
102
RTVSPropertyOp2
 70
     1
102
RTVSPropertyOp3
 70
     1
102
RTVSPropertyOp4
 70
     1
102
RTVSPropertyOp5
 70
     1
102
RTVSPropertyOp6
 70
     1
102
RTVSPropertyOp7
 70
     1
102
RTVSPropertyOp8
 70
     1
102
RTVSPropertyOp9
 70
     1
102
RTVSPropertyOp10
 70
     1
102
RTVSPropertyOp11
 70
     1
102
RTVSPropertyOp12
 70
     1
102
RTVSPropertyOp13
 70
     1
102
RTVSPropertyOp14
 70
     1
102
RTVSPropertyOp15
 70
     1
102
RTVSPropertyOp16
 70
     1
102
RTVSPropertyOp17
 70
     1
102
RTVSPropertyOp18
 70
     1
102
RTVSPropertyOp19
 70
     1
102
RTVSPropertyOp20
 70
     1
102
RTVSPropertyOp21
 70
     1
102
RTVSPropertyOp22
 70
     1
102
RTVSPropertyOp23
 70
     1
102
RTVSPropertyOp24
 70
     1
102
RTVSPropertyOp25
 70
     1
102
RTVSPropertyOp26
 70
     1
102
RTVSPropertyOp27
 70
     1
102
RTVSPropertyOp28
 70
     1
102
RTVSPropertyOp29
 70
     1
102
RTVSPropertyOp30
 70
     1
102
RTVSPropertyOp31
 70
     1
102
RTVSPropertyOp32
 70
     1
  0
XRECORD
  5
49B
102
{ACAD_REACTORS
330
49A
102
}
330
49A
100
AcDbXrecord
280
     1
102
RTVSPropertyOp0
 70
     1
102
RTVSPropertyOp1
 70
     1
102
RTVSPropertyOp2
 70
     1
102
RTVSPropertyOp3
 70
     1
102
RTVSPropertyOp4
 70
     1
102
RTVSPropertyOp5
 70
     1
102
RTVSPropertyOp6
 70
     1
102
RTVSPropertyOp7
 70
     1
102
RTVSPropertyOp8
 70
     1
102
RTVSPropertyOp9
 70
     1
102
RTVSPropertyOp10
 70
     1
102
RTVSPropertyOp11
 70
     1
102
RTVSPropertyOp12
 70
     1
102
RTVSPropertyOp13
 70
     1
102
RTVSPropertyOp14
 70
     1
102
RTVSPropertyOp15
 70
     1
102
RTVSPropertyOp16
 70
     1
102
RTVSPropertyOp17
 70
     1
102
RTVSPropertyOp18
 70
     1
102
RTVSPropertyOp19
 70
     1
102
RTVSPropertyOp20
 70
     1
102
RTVSPropertyOp21
 70
     1
102
RTVSPropertyOp22
 70
     1
102
RTVSPropertyOp23
 70
     1
102
RTVSPropertyOp24
 70
     1
102
RTVSPropertyOp25
 70
     1
102
RTVSPropertyOp26
 70
     1
102
RTVSPropertyOp27
 70
     1
102
RTVSPropertyOp28
 70
     1
102
RTVSPropertyOp29
 70
     1
102
RTVSPropertyOp30
 70
     1
102
RTVSPropertyOp31
 70
     1
102
RTVSPropertyOp32
 70
     1
  0
XRECORD
  5
4A3
102
{ACAD_REACTORS
330
4A2
102
}
330
4A2
100
AcDbXrecord
280
     1
102
RTVSPropertyOp0
 70
     1
102
RTVSPropertyOp1
 70
     1
102
RTVSPropertyOp2
 70
     1
102
RTVSPropertyOp3
 70
     1
102
RTVSPropertyOp4
 70
     1
102
RTVSPropertyOp5
 70
     1
102
RTVSPropertyOp6
 70
     1
102
RTVSPropertyOp7
 70
     1
102
RTVSPropertyOp8
 70
     1
102
RTVSPropertyOp9
 70
     1
102
RTVSPropertyOp10
 70
     1
102
RTVSPropertyOp11
 70
     1
102
RTVSPropertyOp12
 70
     1
102
RTVSPropertyOp13
 70
     1
102
RTVSPropertyOp14
 70
     1
102
RTVSPropertyOp15
 70
     1
102
RTVSPropertyOp16
 70
     1
102
RTVSPropertyOp17
 70
     1
102
RTVSPropertyOp18
 70
     1
102
RTVSPropertyOp19
 70
     1
102
RTVSPropertyOp20
 70
     1
102
RTVSPropertyOp21
 70
     1
102
RTVSPropertyOp22
 70
     1
102
RTVSPropertyOp23
 70
     1
102
RTVSPropertyOp24
 70
     1
102
RTVSPropertyOp25
 70
     1
102
RTVSPropertyOp26
 70
     1
102
RTVSPropertyOp27
 70
     1
102
RTVSPropertyOp28
 70
     1
102
RTVSPropertyOp29
 70
     1
102
RTVSPropertyOp30
 70
     1
102
RTVSPropertyOp31
 70
     1
102
RTVSPropertyOp32
 70
     1
  0
ENDSEC
  0
EOF
